Торрент файл
скачать торрент магнет ссылка Добавлен: 24 мар 2017, 13:56
Размер: 700.43 МБ
Сидеров: 1
Личеров: 1
Автор

СообщениеДобавлено: 24 мар 2017, 13:56 

Не в сети
Супермодератор
Аватара пользователя
Дата регистрации:
15 фев 2012, 16:44
Возраст: 28
Спасибо: 7285 / 2147
Сообщения: 70380
Genres: Teen, Small Tits
Stars: Alice Nice
Series: Karups PC
Year: 2016

Screenshots:

KarupsPC.16.12.30.Alice.Nice.Solo.4.XXX.720p.MP4-KTR

Genre.......: Adult
Files.......: 15
Video.......: MP4
Date........: 2016-12-31
URL.........: http://www.karupspc.com/

Video
ID                                       : 1
Format                                   : AVC
Format/Info                              : Advanced Video Codec
Format profile                           : Main@L3.1
Format settings, CABAC                   : No
Format settings, ReFrames                : 2 frames
Format settings, GOP                     : M=2, N=60
Codec ID                                 : avc1
Codec ID/Info                            : Advanced Video Coding
Duration                                 : 19mn 17s
Bit rate                                 : 4 999 Kbps
Width                                    : 1 280 pixels
Height                                   : 720 pixels
Display aspect ratio                     : 16:9
Frame rate mode                          : Constant
Frame rate                               : 23.976 (23976/1000) fps
Standard                                 : NTSC
Color space                              : YUV
Chroma subsampling                       : 4:2:0
Bit depth                                : 8 bits
Scan type                                : Progressive
Bits/(Pixel*Frame)                       : 0.226
Stream size                              : 690 MiB (98%)
Encoded date                             : UTC 1904-01-01 00:00:00
Tagged date                              : UTC 1904-01-01 00:00:00
Color range                              : Limited

Audio
ID                                       : 2
Format                                   : AAC
Format/Info                              : Advanced Audio Codec
Format profile                           : LC
Codec ID                                 : 40
Duration                                 : 19mn 17s
Bit rate mode                            : Constant
Bit rate                                 : 72.0 Kbps
Channel(s)                               : 2 channels
Channel positions                        : Front: L R
Sampling rate                            : 44.1 KHz
Frame rate                               : 43.066 fps (1024 spf)
Compression mode                         : Lossy
Stream size                              : 9.93 MiB (1%)
Default                                  : Yes
Alternate group                          : 1
Encoded date                             : UTC 1904-01-01 00:00:00
Tagged date                              : UTC 1904-01-01 00:00:00


_________________
Проголосуй за трекер Открытый торрент трекер - RUS-MEDIA.ORG

Проголосуй Открытый торрент трекер - RUS-MEDIA.ORG


Вернуться к началу
 Профиль Отправить личное сообщение  
 
   Похожие торренты   Автор   Торрент   Размер 
В этой теме нет новых непрочитанных сообщений. [1By-Day.com / DDFNetwork.com] Olivia Nice - Naughty and Nice (21822 / 04.04.18) [2018 г., High Heels, Lingerie, Long hair, Toys, Solo, Masturbation]

salma3

0 | 0

709.08 МБ

В этой теме нет новых непрочитанных сообщений. [1By-Day.com / DDFNetwork.com] Olivia Nice - Naughty and Nice (21822 / 04.04.18) [2018 г., High Heels, Lingerie, Long hair, Toys, Solo, Masturbation]

salma3

0 | 0

210.5 МБ

В этой теме нет новых непрочитанных сообщений. [WoodmanCastingX.com] Alice Nice (Casting X * Updated * / 2017-10-28) [2017 г., Anal, Hard Sex, Gape, Group, DP, DAP, Rimming, 720p]

salma3

11 | 3

1.81 ГБ

В этой теме нет новых непрочитанных сообщений. [KarupsOW.com] Kitty Cream - Solo 5 (2016-07-28) [2016 г., Solo, MILF, 720p]

salma3

7 | 2

450.95 МБ

В этой теме нет новых непрочитанных сообщений. [PornMegaLoad.com/Scoreland.com] Kitty Cute - Big Titty, Nice Kitty (13.05.2018) [2018 г., Solo,Big natural tits,Boobs,Hairy,Masturbation., 720p]

salma3

0 | 0

365.32 МБ

В этой теме нет новых непрочитанных сообщений. [WoodmanCastingX.com] Alice Nice (Casting X * Updated * / 2017-10-28) [2017 г., Anal, Hard Sex, Gape, Group, DP, DAP, Rimming, 1080p]

salma3

8 | 3

3.47 ГБ

В этой теме нет новых непрочитанных сообщений. [WeLikeToSuck.com] Alice Nice (Pink Bunny / 31.08.2017) [2017 г., Blowjob,Black Hair,Ball Licking,Deepthroat, 2160p]

salma3

5 | 2

2.91 ГБ


Начать новую тему Ответить на тему  [ 1 сообщение ] 




Для Мосгорсуда, Роскомнадзора и рекламодателей:: mosgorsud-torrent[собачка]yandex.ru
cron