Торрент файл
скачать торрент магнет ссылка Добавлен: 24 мар 2017, 13:55
Размер: 632.07 МБ
Сидеров: 0
Личеров: 0
Автор

СообщениеДобавлено: 24 мар 2017, 13:55 

Не в сети
Супермодератор
Аватара пользователя
Дата регистрации:
15 фев 2012, 16:44
Возраст: 28
Спасибо: 7285 / 2147
Сообщения: 70259

Genres: Teen, Big Tits, Skinny, Petite
Stars: Darcie Dolce
Series: Twistys
Year: 2016

Screenshots:


Twistys.16.12.28.Darcie.Dolce.Wild.At.Heart.XXX.1080p.MP4-KTR

Genre.......: Adult
Files.......: 45
Video.......: MP4
Date........: 2016-12-28
URL.........: http://www.twistys.com/

Video
ID                                       : 1
Format                                   : AVC
Format/Info                              : Advanced Video Codec
Format profile                           : High@L4.1
Format settings, CABAC                   : Yes
Format settings, ReFrames                : 5 frames
Codec ID                                 : avc1
Codec ID/Info                            : Advanced Video Coding
Duration                                 : 9mn 49s
Bit rate                                 : 8 860 Kbps
Width                                    : 1 920 pixels
Height                                   : 1 080 pixels
Display aspect ratio                     : 16:9
Frame rate mode                          : Constant
Frame rate                               : 29.970 (30000/1001) fps
Color space                              : YUV
Chroma subsampling                       : 4:2:0
Bit depth                                : 8 bits
Scan type                                : Progressive
Bits/(Pixel*Frame)                       : 0.143
Stream size                              : 622 MiB (98%)
Writing library                          : x264 core 148 r2665 a01e339
Encoding settings                        : cabac=1 / ref=5 / deblock=1:0:0 / analyse=0x3:0x113 / me=umh / subme=8 / psy=1 / psy_rd=1.00:0.00 / mixed_ref=1 / me_range=16 / chroma_me=1 / trellis=1 / 8x8dct=1 / cqm=0 / deadzone=21,11 / fast_pskip=1 / chroma_qp_offset=-2 / threads=34 / lookahead_threads=5 / sliced_threads=0 / nr=0 / decimate=1 / interlaced=0 / bluray_compat=0 / constrained_intra=0 / bframes=3 / b_pyramid=2 / b_adapt=2 / b_bias=0 / direct=3 / weightb=1 / open_gop=0 / weightp=2 / keyint=60 / keyint_min=6 / scenecut=40 / intra_refresh=0 / rc=cqp / mbtree=0 / qp=25 / ip_ratio=1.40 / pb_ratio=1.30 / aq=0
Encoded date                             : UTC 1904-01-01 00:00:00
Tagged date                              : UTC 1904-01-01 00:00:00

Audio
ID                                       : 2
Format                                   : AAC
Format/Info                              : Advanced Audio Codec
Format profile                           : LC
Codec ID                                 : 40
Duration                                 : 9mn 49s
Duration_LastFrame                       : -11ms
Bit rate mode                            : Constant
Bit rate                                 : 128 Kbps
Channel(s)                               : 2 channels
Channel positions                        : Front: L R
Sampling rate                            : 48.0 KHz
Frame rate                               : 46.875 fps (1024 spf)
Compression mode                         : Lossy
Stream size                              : 9.02 MiB (1%)
Default                                  : Yes
Alternate group                          : 1
Encoded date                             : UTC 1904-01-01 00:00:00
Tagged date                              : UTC 1904-01-01 00:00:00


_________________
Проголосуй за трекер Открытый торрент трекер - RUS-MEDIA.ORG

Проголосуй Открытый торрент трекер - RUS-MEDIA.ORG


Вернуться к началу
 Профиль Отправить личное сообщение  
 
   Похожие торренты   Автор   Торрент   Размер 
В этой теме нет новых непрочитанных сообщений. Darcie Dolce's Manipulative Massage / Манипулятивный Массаж Дарси Дольче (Darcie Dolce, Filly Films) [2017 г., All Girl / Lesbian, Massage, DVDRip]

salma3

5 | 2

1.66 ГБ

В этой теме нет новых непрочитанных сообщений. [WeLiveTogether.com / RealityKings.com] Noelle Easton & Darcie Dolce (Darcie Loves Noelle / 13.02.2018) [2018 г., Lesbian, Brunette, Big Tits, Natural Tits, Hardcore, Pussy Licking, Toys, Tattoo, 69, Shaved, 1080p]

salma3

0 | 0

2.45 ГБ

В этой теме нет новых непрочитанных сообщений. [CherryPimps.com] Darcie Dolce - Setting That Mood [23.10.2017 г., Big tits, solo, posing, masturbation, toys, lingerie, 1080p]

salma3

25 | 8

1.68 ГБ

В этой теме нет новых непрочитанных сообщений. [CherryPimps.com] Darcie Dolce, Kissa Sins (Getting Her Wish With Kissa / 16.10.2017) [Lesbian, Lingerie, Panties, Piercings, Real Tits, Tattoos, Toys, Tribadism, 1080p]

salma3

9 | 3

2.77 ГБ

В этой теме нет новых непрочитанных сообщений. [NuruMassage.com / FantasyMassage.com] Xandra Sixx, Darcie Dolce, Natasha Nice (Sorority Initiation / 30.05.2018) [Kissing, Pussy Licking, Big Tits, Blonde, Brunette, Tribbing, Shower, 69, Threesome, Lesbians, 1080p]

salma3

0 | 0

1.71 ГБ

В этой теме нет новых непрочитанных сообщений. [SweetHeartVideo.com] Darcie Dolce, Victoria June (CELLPHONE REHAB / 25.03.2018) [Latina, Lesbian, Natural tits, Big Tits, Toys, College, Brunette, Ass, Cunilingus, Fingering, 1080p]

salma3

0 | 0

859.72 МБ

В этой теме нет новых непрочитанных сообщений. [Mofos.com] Aidra Fox, Darcie Dolce-My Slutty Girlfriend's Sex Tapes (01.07.17) [2017 г., POV,Lesbian,All Sex]

salma3

14 | 5

522.53 МБ


Начать новую тему Ответить на тему  [ 1 сообщение ] 




Для Мосгорсуда, Роскомнадзора и рекламодателей:: mosgorsud-torrent[собачка]yandex.ru
cron