Торрент файл
скачать торрент магнет ссылка Добавлен: 24 мар 2017, 13:53
Размер: 1.46 ГБ
Сидеров: 0
Личеров: 0
Автор

СообщениеДобавлено: 24 мар 2017, 13:53 

Не в сети
Супермодератор
Аватара пользователя
Дата регистрации:
15 фев 2012, 16:44
Возраст: 28
Спасибо: 7224 / 2147
Сообщения: 67983

Год производства: 2017
Жанр: All Sex
В ролях: Wendy Moon

Тип видео : HD
Формат видео : MP4
Video
ID : 1
Format : AVC
Format/Info : Advanced Video Codec
Format profile : Main@L4.2
Format settings, CABAC : Yes
Format settings, ReFrames : 3 frames
Format settings, GOP : M=4, N=25
Codec ID : avc1
Codec ID/Info : Advanced Video Coding
Duration : 25mn 42s
Bit rate : 7 958 Kbps
Width : 1 920 pixels
Height : 1 080 pixels
Display aspect ratio : 16:9
Frame rate mode : Constant
Frame rate : 25.000 fps
Standard : PAL
Color space : YUV
Chroma subsampling : 4:2:0
Bit depth : 8 bits
Scan type : Progressive
Bits/(Pixel*Frame) : 0.154
Stream size : 1.43 GiB (98%)
Encoded date : UTC 1904-01-01 00:00:00
Tagged date : UTC 1904-01-01 00:00:00
Color range : Limited
Color primaries : BT.709
Transfer characteristics : BT.709
Matrix coefficients : BT.709

Audio
ID : 2
Format : AAC
Format/Info : Advanced Audio Codec
Format profile : LC
Codec ID : 40
Duration : 25mn 42s
Bit rate mode : Constant
Bit rate : 192 Kbps
Channel(s) : 2 channels
Channel positions : Front: L R
Sampling rate : 48.0 KHz
Frame rate : 46.875 fps (1024 spf)
Compression mode : Lossy
Stream size : 34.8 MiB (2%)
Default : Yes
Alternate group : 1
Encoded date : UTC 1904-01-01 00:00:00
Tagged date : UTC 1904-01-01 00:00:0

Скриншоты:


_________________
Проголосуй за трекер Открытый торрент трекер - RUS-MEDIA.ORG

Проголосуй Открытый торрент трекер - RUS-MEDIA.ORG


Вернуться к началу
 Профиль Отправить личное сообщение  
 
   Похожие торренты   Автор   Торрент   Размер 
В этой теме нет новых непрочитанных сообщений. [MeloneChallenge.com] Wendy Moon (ROCKY STRIKES AGAIN) (24.03.2018) [2018 г., Blowjob, All Sex, 1080p]

salma3

0 | 0

1.32 ГБ

В этой теме нет новых непрочитанных сообщений. Бэби-бум / Baby Boom [Комедия, Мелодрама, 1987] WEBRip 1080p, Mvo+Sub

salma3

10 | 14

11.29 ГБ

В этой теме нет новых непрочитанных сообщений. Бэби-бум / Baby Boom [драма, мелодрама, комедия, 1987] WEB-DL 720p, Mvo+Sub

salma3

26 | 10

2.47 ГБ

В этой теме нет новых непрочитанных сообщений. [MeloneChallenge.com] Mea Melone (Inside,outside & cum) [2017 г., Oral, Handjob, All Sex, 1080p]

salma3

26 | 2

699.99 МБ

В этой теме нет новых непрочитанных сообщений. [HouseOfTaboo.com / DDFNetwork.com] Wendy Moon & Blanche Bradburry - Tied Up, Crammed Hard: Blonde Bondage Babe Gets Ass Fucked (20.07.2017) [Anal, Threesome, Fetish, Fishnet, Hardcore, Leather, Ropes, Dominatrix, Spitting, Pink, Sucking]

salma3

7 | 3

597.73 МБ

В этой теме нет новых непрочитанных сообщений. [Sweet18.com / CumLouder.com] Baby Nicols - So good, Baby (22.05.2018) [Natural Tits, Blowjob, Cumshot, Small Tits, Latina Fucking, Bed Sex, Fat Cock]

salma3

38 | 13

668.5 МБ

В этой теме нет новых непрочитанных сообщений. [MyDaughtersHotFriend.com / NaughtyAmerica.com] Lily Moon - 24007 (18.04.2018) [2018 г., All Sex, BG, Skinny, Teen, Small Boobs, Blowjob, Cumshot, 1080p]

salma3

0 | 0

2.25 ГБ


Начать новую тему Ответить на тему  [ 1 сообщение ] 




Для Мосгорсуда, Роскомнадзора и рекламодателей:: mosgorsud-torrent[собачка]yandex.ru
cron