Торрент файл
скачать торрент магнет ссылка Добавлен: 23 мар 2017, 12:51
Размер: 1.32 ГБ
Сидеров: 5
Личеров: 3
Автор

СообщениеДобавлено: 23 мар 2017, 12:51 

Не в сети
Супермодератор
Аватара пользователя
Дата регистрации:
15 фев 2012, 16:44
Возраст: 28
Спасибо: 6659 / 2146
Сообщения: 46021

Год производства: 2017
Жанр: Teen , Small Tits , Skinny , Petite
В ролях: Alex Grey

Тип видео : HD
Формат видео : MP4

Video
ID : 1
Format : AVC
Format/Info : Advanced Video Codec
Format profile : Baseline@L4
Format settings, CABAC : No
Format settings, ReFrames : 3 frames
Codec ID : avc1
Codec ID/Info : Advanced Video Coding
Duration : 18mn 46s
Bit rate : 10 000 Kbps
Width : 1 920 pixels
Height : 1 080 pixels
Display aspect ratio : 16:9
Frame rate mode : Constant
Frame rate : 29.970 (30000/1001) fps
Color space : YUV
Chroma subsampling : 4:2:0
Bit depth : 8 bits
Scan type : Progressive
Bits/(Pixel*Frame) : 0.161
Stream size : 1.31 GiB (99%)
Writing library : x264 core 148
Encoding settings : cabac=0 / ref=3 / deblock=1:0:0 / analyse=0x1:0x111 / me=hex / subme=7 / psy=1 / psy_rd=1.00:0.00 / mixed_ref=1 / me_range=16 / chroma_me=1 / trellis=1 / 8x8dct=0 / cqm=0 / deadzone=21,11 / fast_pskip=1 / chroma_qp_offset=-2 / threads=8 / lookahead_threads=1 / sliced_threads=0 / nr=0 / decimate=1 / interlaced=0 / bluray_compat=0 / constrained_intra=0 / bframes=0 / weightp=0 / keyint=250 / keyint_min=25 / scenecut=40 / intra_refresh=0 / rc_lookahead=40 / rc=abr / mbtree=1 / bitrate=10000 / ratetol=1.0 / qcomp=0.60 / qpmin=0 / qpmax=69 / qpstep=4 / ip_ratio=1.40 / aq=1:1.00
Encoded date : UTC 1904-01-01 00:00:00
Tagged date : UTC 1904-01-01 00:00:00

Audio
ID : 2
Format : AAC
Format/Info : Advanced Audio Codec
Format profile : LC
Codec ID : 40
Duration : 18mn 46s
Duration_LastFrame : -2ms
Bit rate mode : Constant
Bit rate : 96.0 Kbps
Channel(s) : 2 channels
Channel positions : Front: L R
Sampling rate : 44.1 KHz
Frame rate : 43.066 fps (1024 spf)
Compression mode : Lossy
Stream size : 12.9 MiB (1%)
Default : Yes
Alternate group : 1
Encoded date : UTC 1904-01-01 00:00:00
Tagged date : UTC 1904-01-01 00:00:00

Скриншоты:


_________________
Проголосуй за трекер Открытый торрент трекер - RUS-MEDIA.ORG

Проголосуй Открытый торрент трекер - RUS-MEDIA.ORG



реклама партнёра


Вернуться к началу
 Профиль Отправить личное сообщение  
 
   Похожие торренты   Автор   Торрент   Размер 
В этой теме нет новых непрочитанных сообщений. ALSScan 17 03 10 Alex Grey Pink And Purple XXX 2160p MP4-KTR

salma3

2 | 0

2.67 ГБ

В этой теме нет новых непрочитанных сообщений. [Vixen.com] Alex Grey (Naughty Assistant Sex Adventures / 07.08.17.) [2017 г., Gonzo, All Sex, 1080p]

salma3

8 | 3

2.75 ГБ

В этой теме нет новых непрочитанных сообщений. [AlexLegend.com] Alex Grey First Ir Dp Gangbang [2017 г., Gangbang, DP, IR, 1080p]

salma3

32 | 12

3.03 ГБ

В этой теме нет новых непрочитанных сообщений. [WildOnCam.com / CherryPimps.com] Alex Grey (Alex Gets One Hot Mouthful LIVE) [2017-09-12 г. All Natural, Blonde, Blowjob, Cow Girl, Doggy Style, Hardcore, High Heels, Panties, Petite, Real Tits, Cow Girl, Shaved, Small Tits, Tattoos, Unifo

salma3

7 | 2

1.55 ГБ

В этой теме нет новых непрочитанных сообщений. [Holed.com] Alex Grey (StepSis Steals Anal Toys / 2017-09-05) [2017 г., Gonzo, Anal, 1080p]

salma3

38 | 13

1.88 ГБ

В этой теме нет новых непрочитанных сообщений. Alex Grey / Take Me With You (2015) HD 720p

Dile-1

179 | 115

373.25 МБ

В этой теме нет новых непрочитанных сообщений. [Tiny4K.com] Alex Grey - Balloon Playtime (09.11.2017) [All sex]

salma3

38 | 13

284.71 МБ


Начать новую тему Ответить на тему  [ 1 сообщение ] 




Для Мосгорсуда, Роскомнадзора и рекламодателей:: mosgorsud-torrent[собачка]yandex.ru