Торрент файл
скачать торрент магнет ссылка Добавлен: 23 мар 2017, 12:50
Размер: 2.88 ГБ
Сидеров: 0
Личеров: 0
Автор

СообщениеДобавлено: 23 мар 2017, 12:50 

Не в сети
Супермодератор
Аватара пользователя
Дата регистрации:
15 фев 2012, 16:44
Возраст: 29
Спасибо: 7328 / 2147
Сообщения: 73355

Год производства: 2017
Жанр: All Sex,Casting
В ролях: Charity Crawford

Тип видео : HD
Формат видео : MP4
Video
ID : 1
Format : AVC
Format/Info : Advanced Video Codec
Format profile : Baseline@L3.1
Format settings, CABAC : No
Format settings, ReFrames : 2 frames
Codec ID : avc1
Codec ID/Info : Advanced Video Coding
Duration : 37mn 0s
Bit rate : 11.0 Mbps
Width : 1 920 pixels
Height : 1 080 pixels
Display aspect ratio : 16:9
Frame rate mode : Constant
Frame rate : 29.970 (29970/1000) fps
Color space : YUV
Chroma subsampling : 4:2:0
Bit depth : 8 bits
Scan type : Progressive
Bits/(Pixel*Frame) : 0.177
Stream size : 2.84 GiB (99%)
Writing library : x264 core 142 r2431 a5831aa
Encoding settings : cabac=0 / ref=2 / deblock=1:0:0 / analyse=0x1:0x111 / me=hex / subme=6 / psy=1 / psy_rd=1.00:0.00 / mixed_ref=1 / me_range=16 / chroma_me=1 / trellis=1 / 8x8dct=0 / cqm=0 / deadzone=21,11 / fast_pskip=1 / chroma_qp_offset=-2 / threads=2 / lookahead_threads=1 / sliced_threads=0 / nr=0 / decimate=1 / interlaced=0 / bluray_compat=0 / constrained_intra=0 / bframes=0 / weightp=0 / keyint=250 / keyint_min=25 / scenecut=40 / intra_refresh=0 / rc_lookahead=30 / rc=crf / mbtree=1 / crf=18.0 / qcomp=0.60 / qpmin=0 / qpmax=69 / qpstep=4 / ip_ratio=1.40 / aq=1:1.00
Encoded date : UTC 1904-01-01 00:00:00
Tagged date : UTC 1904-01-01 00:00:00

Audio
ID : 2
Format : AAC
Format/Info : Advanced Audio Codec
Format profile : LC
Codec ID : 40
Duration : 37mn 0s
Bit rate mode : Constant
Bit rate : 128 Kbps
Channel(s) : 2 channels
Channel positions : Front: L R
Sampling rate : 48.0 KHz
Frame rate : 46.875 fps (1024 spf)
Compression mode : Lossy
Stream size : 33.8 MiB (1%)
Default : Yes
Alternate group : 1
Encoded date : UTC 1904-01-01 00:00:00
Tagged date : UTC 1904-01-01 00:00:00


Скриншоты:


_________________
Проголосуй за трекер Открытый торрент трекер - RUS-MEDIA.ORG

Проголосуй Открытый торрент трекер - RUS-MEDIA.ORG


Вернуться к началу
 Профиль Отправить личное сообщение  
 
   Похожие торренты   Автор   Торрент   Размер 
В этой теме нет новых непрочитанных сообщений. [StrandedTeens.com / Mofos.com] Charity Crawford - Smokin' Hot Charity on a Rooftop (07.05.2018) [POV, Couples Fantasies, Outdoors, Sex, Deep Throat, Doggystyle, Missionary, 1080p]

salma3

0 | 0

2.97 ГБ

В этой теме нет новых непрочитанных сообщений. [JulesJordan.com] Charity Crawford (Charity Crawford 18 Year Old Teen Has Her Holes Cleared By A BBC / 2017-08-22) [2017 г., 4K, Big Cocks, Black, Blowjobs, Brunettes, Deep Throat, Facial, Interracial, Natural, Teen, 2160p]

salma3

13 | 4

6.25 ГБ

В этой теме нет новых непрочитанных сообщений. Charity Crawford - Over The Edge (2017) HD 1080p

salma3

10 | 8

3 ГБ

В этой теме нет новых непрочитанных сообщений. [BangBros18.com / BangBros.com] Charity Crawford - Charity Post Workout Protein Shake (bbe16281 / 30.01.2018) [Blowjob, Brunette, Cowgirl, Cum In Mouth, Cumshot, Doggystyle, Hardcore, Riding, Shaved, Skinny, Small Booty, Small Butt, White,

salma3

38 | 13

320.53 МБ

В этой теме нет новых непрочитанных сообщений. [IKnowThatGirl.com / Mofos.com] Charity Crawford (Footjob and Pantyhose Play) [2017 г., POV, Couples Fantasies, Bathroom, Sex, Feet, Fetish, Doggystyle, 1080p]

salma3

7 | 2

2.17 ГБ

В этой теме нет новых непрочитанных сообщений. [FootsieBabes.com / 21Sextury.com] Charity Crawford (Teddy Bears, Feet & Sex / 28.05.2017) [All Sex, Brunette, Natural Tits, Foot, Oral, Hardcore, Cumshot, 1080p]

salma3

11 | 3

1.34 ГБ

В этой теме нет новых непрочитанных сообщений. [Passion-HD.com] Charity Crawford (Sensual Yoga / 12.08.2017) [2017 г., All Sex, 1080p]

salma3

38 | 13

916.49 МБ


Начать новую тему Ответить на тему  [ 1 сообщение ] 




Для Мосгорсуда, Роскомнадзора и рекламодателей:: mosgorsud-torrent[собачка]yandex.ru
cron