Торрент файл
скачать торрент магнет ссылка Добавлен: 23 мар 2017, 12:47
Размер: 1.18 ГБ
Сидеров: 0
Личеров: 0
Автор

СообщениеДобавлено: 23 мар 2017, 12:47 

Не в сети
Супермодератор
Аватара пользователя
Дата регистрации:
15 фев 2012, 16:44
Возраст: 28
Спасибо: 7061 / 2147
Сообщения: 59181

Год производства: 2017
Жанр: All Sex
В ролях: Caroline Ardolino

Тип видео : HD
Формат видео : MP4
Video
ID : 1
Format : AVC
Format/Info : Advanced Video Codec
Format profile : High@L4.1
Format settings, CABAC : Yes
Format settings, ReFrames : 5 frames
Codec ID : avc1
Codec ID/Info : Advanced Video Coding
Duration : 26mn 14s
Bit rate : 6 000 Kbps
Width : 1 920 pixels
Height : 1 080 pixels
Display aspect ratio : 16:9
Frame rate mode : Constant
Frame rate : 25.000 fps
Color space : YUV
Chroma subsampling : 4:2:0
Bit depth : 8 bits
Scan type : Progressive
Bits/(Pixel*Frame) : 0.116
Stream size : 1.10 GiB (97%)
Writing library : x264 core 148 r2744 b97ae06
Encoding settings : cabac=1 / ref=5 / deblock=1:0:0 / analyse=0x3:0x113 / me=hex / subme=8 / psy=1 / psy_rd=1.00:0.00 / mixed_ref=1 / me_range=16 / chroma_me=1 / trellis=2 / 8x8dct=1 / cqm=0 / deadzone=21,11 / fast_pskip=1 / chroma_qp_offset=-2 / threads=34 / lookahead_threads=5 / sliced_threads=0 / nr=0 / decimate=1 / interlaced=0 / bluray_compat=0 / constrained_intra=0 / bframes=3 / b_pyramid=2 / b_adapt=1 / b_bias=0 / direct=3 / weightb=1 / open_gop=0 / weightp=2 / keyint=60 / keyint_min=6 / scenecut=40 / intra_refresh=0 / rc_lookahead=50 / rc=abr / mbtree=1 / bitrate=6000 / ratetol=1.0 / qcomp=0.60 / qpmin=0 / qpmax=69 / qpstep=4 / ip_ratio=1.40 / aq=1:1.00
Encoded date : UTC 1904-01-01 00:00:00
Tagged date : UTC 1904-01-01 00:00:00

Audio
ID : 2
Format : AAC
Format/Info : Advanced Audio Codec
Format profile : LC
Codec ID : 40
Duration : 26mn 14s
Bit rate mode : Constant
Bit rate : 192 Kbps
Channel(s) : 2 channels
Channel positions : Front: L R
Sampling rate : 48.0 KHz
Frame rate : 46.875 fps (1024 spf)
Compression mode : Lossy
Stream size : 36.0 MiB (3%)
Default : Yes
Alternate group : 1
Encoded date : UTC 1904-01-01 00:00:00
Tagged date : UTC 1904-01-01 00:00:00

Скриншоты:


_________________
Проголосуй за трекер Открытый торрент трекер - RUS-MEDIA.ORG

Проголосуй Открытый торрент трекер - RUS-MEDIA.ORG


Вернуться к началу
 Профиль Отправить личное сообщение  
 
   Похожие торренты   Автор   Торрент   Размер 
В этой теме нет новых непрочитанных сообщений. [Mature.nl / Mature.eu] Caroline Ardolino (40) (naughty mom Caroline Ardolino doing her toyboy / 2018-01-19) [2018 г., Blowjob, Cum, Facial, Shaved, Hardcore, All Sex, 1080p]

salma3

38 | 13

957.21 МБ

В этой теме нет новых непрочитанных сообщений. Mom XXX - Caroline Ardolino (2016) 1080p

salma3

0 | 0

1.14 ГБ

В этой теме нет новых непрочитанных сообщений. Caroline Ardolino - Housewife in stockings squirting (2017) SiteRip

salma3

0 | 0

296.14 МБ

В этой теме нет новых непрочитанных сообщений. [CzechVR.com] Caroline Ardolino & Nicole Love (Czech VR 137 - Gift for Stepmother) [2017 г., Creampie, Threesome FFM, MILF, Teen, Hardcore, Blowjob, Dildo, All sex, 3D, Oculus, Virtual Reality, VR]

salma3

4 | 2

6.92 ГБ

В этой теме нет новых непрочитанных сообщений. MomXXX 17 03 08 Jessica Red XXX 1080p MP4-KTR

salma3

0 | 0

996.49 МБ

В этой теме нет новых непрочитанных сообщений. [MomXXX.com / SexyHub.com] Tiffany Doll (16.08.2017) [All Sex, Blowjob, 1080p]

salma3

16 | 5

1.05 ГБ

В этой теме нет новых непрочитанных сообщений. [MomXXX.com / SexyHub.com] Valentina Bianco (30.08.2017) [All Sex, Blowjob, 1080p]

salma3

21 | 7

1.13 ГБ


Начать новую тему Ответить на тему  [ 1 сообщение ] 




Для Мосгорсуда, Роскомнадзора и рекламодателей:: mosgorsud-torrent[собачка]yandex.ru
cron