Торрент файл
скачать торрент магнет ссылка Добавлен: 23 мар 2017, 12:47
Размер: 1.09 ГБ
Сидеров: 0
Личеров: 0
Автор

СообщениеДобавлено: 23 мар 2017, 12:47 

Не в сети
Супермодератор
Аватара пользователя
Дата регистрации:
15 фев 2012, 16:44
Возраст: 29
Спасибо: 7377 / 2147
Сообщения: 75798

Год производства: 2017
Жанр: Solo,Masturbation
В ролях: Mia Malkova

Тип видео : HD
Формат видео : MP4
Video
ID : 1
Format : AVC
Format/Info : Advanced Video Codec
Format profile : Main@L5
Format settings, CABAC : Yes
Format settings, ReFrames : 2 frames
Codec ID : avc1
Codec ID/Info : Advanced Video Coding
Duration : 11mn 30s
Bit rate mode : Variable
Bit rate : 13.3 Mbps
Maximum bit rate : 120 Mbps
Width : 1 920 pixels
Height : 1 080 pixels
Display aspect ratio : 16:9
Frame rate mode : Variable
Frame rate : 23.976 (24000/1001) fps
Minimum frame rate : 23.974 fps
Maximum frame rate : 23.981 fps
Standard : NTSC
Color space : YUV
Chroma subsampling : 4:2:0
Bit depth : 8 bits
Scan type : Progressive
Bits/(Pixel*Frame) : 0.267
Stream size : 1.07 GiB (98%)
Encoded date : UTC 1904-01-01 00:00:00
Tagged date : UTC 1904-01-01 00:00:00
Color range : Limited

Audio
ID : 2
Format : AAC
Format/Info : Advanced Audio Codec
Format profile : LC
Codec ID : 40
Duration : 11mn 30s
Duration_LastFrame : -19ms
Bit rate mode : Constant
Bit rate : 320 Kbps
Channel(s) : 2 channels
Channel positions : Front: L R
Sampling rate : 48.0 KHz
Frame rate : 46.875 fps (1024 spf)
Compression mode : Lossy
Stream size : 26.3 MiB (2%)
Default : Yes
Alternate group : 1
Encoded date : UTC 1904-01-01 00:00:00
Tagged date : UTC 1904-01-01 00:00:00

Скриншоты:


_________________
Проголосуй за трекер Открытый торрент трекер - RUS-MEDIA.ORG

Проголосуй Открытый торрент трекер - RUS-MEDIA.ORG


Вернуться к началу
 Профиль Отправить личное сообщение  
 
   Похожие торренты   Автор   Торрент   Размер 
В этой теме нет новых непрочитанных сообщений. CherryPimps 17 03 01 Mia Malkova Burning Up For You XXX 1080p MP4-KTR

salma3

0 | 0

995.79 МБ

В этой теме нет новых непрочитанных сообщений. CherryPimps 17 03 13 Mia Malkova True Passion XXX 1080p MP4-KTR

salma3

0 | 0

2.19 ГБ

В этой теме нет новых непрочитанных сообщений. [ImmoralLive.com / MyXXXPass.com] Mia Malkova (Mia Malkova's Solo Fest / 02.01.2018) [2018 г., Blonde,Toys,Vibrator,Masturbation,Solo,Sybian,Big Ass, 1080p]

salma3

5 | 3

4.47 ГБ

В этой теме нет новых непрочитанных сообщений. [SinsLifе.com] Mia Malkova, Kissa Sins (Sins Sex Tour Mia Malkova / 2018-01-08) [2018 г., Gonzo, Threesome, All Sex, 1080p]

salma3

17 | 5

2.94 ГБ

В этой теме нет новых непрочитанных сообщений. [WildOnCam.com / CherryPimps.com] Amia Miley - Welcome Back Amia LIVE (08.09.2017) [All Sex, Blowjobs, Cum Swallowing, Deep Throat, Doggy Style, 1080p]

salma3

5 | 2

8.26 ГБ

В этой теме нет новых непрочитанных сообщений. [BurningAngel.com] Joanna Angel & Mia Malkova (Babysitter Auditions - Mia Malkova / 24.08.2017) [2017 г., Girl/Boy,Girl/Girl,Big Tits,Punk Girl,Babysitter,Tattoo/Piercing,Ink Queens,Ass,Natural Breasts,Dyed Hair, 1080p]

salma3

9 | 3

990.28 МБ

В этой теме нет новых непрочитанных сообщений. [HardX.com / XEmpire.com] Mia Malkova - Mia Malkova DP (29.06.2018) [Double Penetration (DP), Anal, Threesome, 2-on-1, Hardcore, Facial, Blonde, Blowjob, Deepthroat, Gonzo]

salma3

0 | 0

469.62 МБ


Начать новую тему Ответить на тему  [ 1 сообщение ] 




Для Мосгорсуда, Роскомнадзора и рекламодателей:: mosgorsud-torrent[собачка]yandex.ru
cron