Торрент файл
скачать торрент магнет ссылка Добавлен: 07 дек 2012, 10:51
Размер: 1.1 ГБ
Сидеров: 117
Личеров: 7
Автор

СообщениеДобавлено: 07 дек 2012, 10:51 

Не в сети
Зам. Админа
Аватара пользователя
Дата регистрации:
02 дек 2010, 12:39
Спасибо: 12623 / 214
Сообщения: 28012

Название: Михаил Круг / Лучшие песни (Новая коллекция)
Исполнитель: Михаил Круг
Год: 2011
Жанр: Шансон
Страна: Россия

Продолжительность: 02:31:06
Формат/Кодек: FLAC (*.flac)
Битрейт аудио: lossless

Часть 1
Номер по каталогу: МТ 000410-571-1
Продолжительность: 01:15:41

01. Электричка (3:05)
02. Девочка - пай (4:17)
03. Фраер (2:55)
04. День как день (2:52)
05. Кумовая (2:55)
06. Жиган - лимон (2:53)
07. А сечку жрите сами (2:49)
08. Это было вчера (4:33)
09. Пусти меня, мама (2:51)
10. Прокурору зелёному - Слава! (5:40)
11. Водочку пьём... (2:59)
12. Падал снег (3:50)
13. Здравствуйте! (2:33)
14. Красные карманы (2:54)
15. Владимирский централ (4:27)
16. Это имя (4:23)
17. Ништяк, браток! (3:15)
18. Мадам (4:14)
19. Ностальгия о будущей любви (4:12)
20. Раз, два, три по почкам (2:56)
21. Кресты (5:09)

Часть 2
Номер по каталогу: МТ 000410-572-1
Продолжительность: 01:14:24

01. Браво (2:38)
02. Мышка (3:27)
03. Мой бог (Маравихер 2) (5:35)
04. Дороги (4:39)
05. Всё сбудется (2:45)
06. Исповедь (5:19)
07. Владимирский централ 2 (еврейский арестант) (4:25)
08. Кольщик (4:47)
09. Письмо маме (4:16)
10. Чифирнуть бы ништяк (5:04)
11. У каких ворот (3:33)
12. Осенний дождь (5:38)
13. В лазурном 4 (2:54)
14. Я знаю Вас (4:30)
15. Селигер (4:35)
16. Красные карманы 2 (2:47)
17. Мамины подружки (3:39)

Дополнительная информация:
Exact Audio Copy V1.0 beta 3 from 29. August 2011

Отчёт EAC об извлечении, выполненном 24. января 2012, 12:37

Михаил Круг / Лучшие песни. Часть 1. Новая коллекция

Дисковод: ASUSDRW-1814BLTAdapter: 2ID: 0

Режим чтения: Достоверность
Использование точного потока : Да
Отключение кэша аудио: Да
Использование указателей C2: Нет

Коррекция смещения при чтении: 6
Способность читать области Lead-in и Lead-out: Нет
Заполнение пропущенных сэмплов тишиной: Да
Удаление блоков с тишиной в начале и конце: Нет
При вычислениях CRC использовались нулевые сэмплы : Да
Интерфейс: Встроенный Win32-интерфейс для Win NT/2000

Выходной формат : Внутренние WAV-операции
Формат сэмплов: 44.100 Гц; 16 бит; стерео

TOC извлечённого CD

Трек |Старт| Длительность | Начальный сектор | Конечный сектор
---------------------------------------------------------------------
1|0:00.00 |3:05.07|0|13881
2|3:05.07 |4:17.08|13882|33164
3|7:22.15 |2:55.32|33165|46321
4| 10:17.47 |2:51.50|46322|59196
5| 13:09.22 |2:55.15|59197|72336
6| 16:04.37 |2:53.03|72337|85314
7| 18:57.40 |2:48.59|85315|97973
8| 21:46.24 |4:33.23|97974|118471
9| 26:19.47 |2:51.22|118472|131318
10| 29:10.69 |5:39.39|131319|156782
11| 34:50.33 |2:59.16|156783|170223
12| 37:49.49 |3:50.21|170224|187494
13| 41:39.70 |2:33.29|187495|198998
14| 44:13.24 |2:53.40|198999|212013
15| 47:06.64 |4:26.58|212014|232021
16| 51:33.47 |4:22.39|232022|251710
17| 55:56.11 |3:14.50|251711|266310
18| 59:10.61 |4:14.34|266311|285394
19| 63:25.20 |4:11.44|285395|304263
20| 67:36.64 |2:55.52|304264|317440
21| 70:32.41 |5:08.59|317441|340599

Характеристики диапазона извлечения и сообщения об ошибках

Выбранный диапазон

Имя файла F:Lossless1. Шансон, Авторская и Военная песняРусский шансон (К-Л-М-Н)Круг МихаилМихаил Круг - Лучшие песни. Новая коллекцияМихаил Круг - Лучшие песни. Часть 1. Новая коллекция.wav

Пиковый уровень 98.8 %
Скорость извлечения 5.2 X
Качество диапазона 100.0 %
CRC теста FAC5013F
CRC копии FAC5013F
Копирование... OK

Ошибок не произошло

AccurateRip: сводка

Трек1точность не определена (достоверность 1)[C715A467], AccurateRip вернул [B252E3E9](AR v2)
Трек2точность не определена (достоверность 1)[A4AF4727], AccurateRip вернул [BB3C7C28](AR v2)
Трек3точность не определена (достоверность 1)[53277774], AccurateRip вернул [BA1DC33B](AR v2)
Трек4точность не определена (достоверность 1)[DA4F578B], AccurateRip вернул [603D84D0](AR v2)
Трек5точность не определена (достоверность 1)[BBCD8D20], AccurateRip вернул [F64083C4](AR v2)
Трек6точность не определена (достоверность 1)[F27F75FC], AccurateRip вернул [A947A7C7](AR v2)
Трек7точность не определена (достоверность 1)[504D590A], AccurateRip вернул [6EE8D6C2](AR v2)
Трек8точность не определена (достоверность 1)[6B956D3A], AccurateRip вернул [C2A9EB5D](AR v2)
Трек9точность не определена (достоверность 1)[2C938C7A], AccurateRip вернул [0125DD1F](AR v2)
Трек 10точность не определена (достоверность 1)[ACC2A13E], AccurateRip вернул [895984E3](AR v2)
Трек 11точность не определена (достоверность 1)[BA60FF16], AccurateRip вернул [DCF8A96D](AR v2)
Трек 12точность не определена (достоверность 1)[B5E3A6B5], AccurateRip вернул [ED5C8CB7](AR v2)
Трек 13точность не определена (достоверность 1)[0C9953E2], AccurateRip вернул [7AA6B0B6](AR v2)
Трек 14точность не определена (достоверность 1)[5EA373DC], AccurateRip вернул [0B36C5EF](AR v2)
Трек 15точность не определена (достоверность 1)[61410CA0], AccurateRip вернул [919D63CC](AR v2)
Трек 16точность не определена (достоверность 1)[9C30A33C], AccurateRip вернул [CD566CCA](AR v2)
Трек 17точность не определена (достоверность 1)[CFBC9BA8], AccurateRip вернул [69A8D480](AR v2)
Трек 18точность не определена (достоверность 1)[F85682B4], AccurateRip вернул [65077BFD](AR v2)
Трек 19точность не определена (достоверность 1)[5F8D1799], AccurateRip вернул [29F59091](AR v2)
Трек 20точность не определена (достоверность 1)[168684F3], AccurateRip вернул [788C59E6](AR v2)
Трек 21точность не определена (достоверность 1)[28A2F179], AccurateRip вернул [3D5C2B60](AR v2)

Ни один трек не прошёл проверки на точность
В вашей базе может быть иной вариант штамповки диска

Конец отчёта

==== Контрольная сумма отчёта F6EC0558EFF4323E16135A2729695E1DD16253513AABD84E7A84AE057D08C5AB ====





реклама партнёра


Вернуться к началу
 Профиль  
 
   Похожие торренты   Автор   Торрент   Размер 
В этой теме нет новых непрочитанных сообщений. Сборник - Песни для души радио Шансон [Шансон, 2017] MP3 / 256 kbps

salma3

372 | 31

671.13 МБ

В этой теме нет новых непрочитанных сообщений. Маша и Медведи - Коллекция [6 Альбомов] (2000-2014) FLAC

Dracon

23 | 3

1.71 ГБ

В этой теме нет новых непрочитанных сообщений. Русский стилль - Коллекция [2 Альбома] (2009-2012) FLAC

Dracon

8 | 2

989.93 МБ

В этой теме нет новых непрочитанных сообщений. Теннис. ATP Slam US Open 2017. 2-й круг. Роджер Федерер — Михаил Южный [31.08] (2017) IPTV 1080p | 50 fps

salma3

7 | 4

6.15 ГБ

В этой теме нет новых непрочитанных сообщений. Сборник - Конкретные песни о жизни [2015, Шансон, MP3]

Nickolas3435

36 | 7

669.1 МБ

В этой теме нет новых непрочитанных сообщений. Сборник - Дворовые Песни [Шансон, 2017] MP3 / 256 kbps

salma3

1029 | 116

728.11 МБ

В этой теме нет новых непрочитанных сообщений. Сборник - Песни Про Рыбалку [Поп, Шансон, 2017] MP3 / 320 kbrs

salma3

602 | 46

650.83 МБ


Начать новую тему Ответить на тему  [ 1 сообщение ] 




Для Мосгорсуда, Роскомнадзора и рекламодателей:: mosgorsud-torrent[собачка]yandex.ru