Торрент файл
скачать торрент магнет ссылка Добавлен: 07 фев 2020, 22:07
Размер: 1018.01 МБ
Сидеров: 0
Личеров: 0
Автор

СообщениеДобавлено: 07 фев 2020, 22:07 

Не в сети
Супермодератор
Аватара пользователя
Дата регистрации:
15 фев 2012, 16:44
Возраст: 30
Спасибо: 8185 / 2148
Сообщения: 95725
Год выпуска: 2020
Жанр: Боевик, триллер, криминал
Режиссер: Джастин Лин

Актеры: Вин Дизель, Мишель Родригес, Тайриз Гибсон, Лудакрис, Джордана Брюстер, Натали Эммануэль, Джон Сина, Хелен Миррен, Шарлиз Терон, Майкл Рукер

Описание:
Сайфер заручается поддержкой Джейкоба, младшего брата Доминика, чтобы отомстить Дому и его команде.

Перевод: Дублированный

Дата мировой премьеры: 20 мая 2020
Дата российской премьеры: 21 мая 2020, «UPI»




Продолжительность: 00:03:56
Качество видео: WEBRip 1080p
Видео: H264, 1920x800, 32,0 Мбит/сек
Аудио 1: MP3 2.0, 128 Кбит/сек [Русский - дублированный]
Аудио 2: DTS-HD MA 5.1, 4524 Кбит/сек [Английский - оригинал]
Общее
Уникальный идентификатор : 200246849226268672377714283166731025666 (0x96A623EBF8FEB24224795F3EF84F3D02)
Полное имя : D:TorrentsFast & Furious 9 (2020) WEBRip [1080p] Trailer №1.mkv
Формат : Matroska
Версия формата : Version 4
Размер файла : 1018 Мбайт
Продолжительность : 3 м. 56 с.
Режим общего битрейта : Переменный
Общий поток : 36,2 Мбит/сек
Дата кодирования : UTC 2020-02-07 15:10:13
Программа кодирования : mkvmerge v43.0.0 ('The Quartermaster') 64-bit
Библиотека кодирования : libebml v1.3.10 + libmatroska v1.5.2

Видео
Идентификатор : 1
Формат : AVC
Формат/Информация : Advanced Video Codec
Профиль формата : Main@L4.1
Настройки формата : CABAC / 2 Ref Frames
Параметр CABAC формата : Да
Параметр RefFrames формата : 2 кадра
Параметр GOP формата : M=3, N=24
Идентификатор кодека : V_MPEG4/ISO/AVC
Продолжительность : 3 м. 53 с.
Вид битрейта : Постоянный
Битрейт : 32,0 Мбит/сек
Ширина : 1920 пикселей
Высота : 800 пикселей
Соотношение сторон : 2,40:1
Режим частоты кадров : Постоянный
Частота кадров : 24,000 кадра/сек
Цветовое пространство : YUV
Субдискретизация насыщенности : 4:2:0
Битовая глубина : 8 бит
Тип развёртки : Прогрессивная
Бит/(Пиксели*Кадры) : 0.868
Размер потока : 887 Мбайт (87%)
Язык : English
Default : Да
Forced : Нет

Аудио #1
Идентификатор : 2
Формат : MPEG Audio
Версия формата : Version 1
Профиль формата : Layer 3
Настройки формата : Joint stereo / MS Stereo
Идентификатор кодека : A_MPEG/L3
Идентификатор кодека/Подсказка : MP3
Продолжительность : 3 м. 49 с.
Вид битрейта : Постоянный
Битрейт : 128 Кбит/сек
Каналы : 2 канала
Частота : 48,0 КГц
Частота кадров : 41,667 кадра/сек (1152 SPF)
Метод сжатия : С потерями
Размер потока : 3,49 Мбайт (0%)
Заголовок : Dub
Язык : Russian
Default : Да
Forced : Нет

Аудио #2
Идентификатор : 3
Формат : DTS XLL
Формат/Информация : Digital Theater Systems
Коммерческое название : DTS-HD Master Audio
Идентификатор кодека : A_DTS
Продолжительность : 3 м. 56 с.
Вид битрейта : Переменный
Битрейт : 4524 Кбит/сек
Каналы : 6 каналов
ChannelLayout : C L R Ls Rs LFE
Частота : 48,0 КГц
Частота кадров : 93,750 кадра/сек (512 SPF)
Битовая глубина : 24 бит
Метод сжатия : Без потерь
Размер потока : 127 Мбайт (13%)
Язык : English
Default : Нет
Forced : Нет



_________________
Проголосуй за трекер Открытый торрент трекер - RUS-MEDIA.ORG

Проголосуй Открытый торрент трекер - RUS-MEDIA.ORG


Скачать книги и аудио книги через торрент


Вернуться к началу
 Профиль Отправить личное сообщение  
 
   Похожие торренты   Автор   Торрент   Размер 
В этой теме нет новых непрочитанных сообщений. Двойной форсаж / 2 Fast 2 Furious [боевик, триллер, криминал, 2003] UHD BDRip 1080p, Dub

salma3

0 | 0

8.48 ГБ

В этой теме нет новых непрочитанных сообщений. Форсаж / The Fast and the Furious [Боевик, Триллер, Криминал, 2001] WEB-DL 1080p, Dub [Open Matte]

salma3

0 | 0

11.97 ГБ

В этой теме нет новых непрочитанных сообщений. Тройной форсаж: Токийский дрифт / The Fast and the Furious: Tokyo Drift [Боевик, Триллер, Криминал, 2006] WEB-DL 1080p, Dub [Open Matte]

salma3

0 | 0

10.43 ГБ

В этой теме нет новых непрочитанных сообщений. Тройной форсаж: Токийский дрифт / The Fast and the Furious: Tokyo Drift [Боевик, Триллер, Криминал, 2006] WEB-DL 1080p , Dub [Open Matte]

salma3

1 | 0

8.98 ГБ

В этой теме нет новых непрочитанных сообщений. Форсаж / The Fast and the Furious [Боевик, триллер, криминал, 2001] BDRemux 2160p, Dub [4K]

salma3

0 | 0

55.89 ГБ

В этой теме нет новых непрочитанных сообщений. Форсаж / The Fast and the Furious [боевик, триллер, криминал, 2001] UHD BDRip 1080p, Dvo

salma3

0 | 0

7.75 ГБ

В этой теме нет новых непрочитанных сообщений. Форсаж 4 / Fast & Furious [Криминал, боевик, триллер, 2009] UHD BDRip-HEVC 2160p, Dub [4K]

salma3

0 | 0

20.39 ГБ


Начать новую тему Ответить на тему  [ 1 сообщение ] 




Для Мосгорсуда, Роскомнадзора и рекламодателей:: mosgorsud-torrent[собачка]yandex.ru
cron