Торрент файл
скачать торрент магнет ссылка Добавлен: 08 окт 2019, 16:51
Размер: 661.97 МБ
Сидеров: 0
Личеров: 0
Статус: (salma3)
Автор

СообщениеДобавлено: 08 окт 2019, 16:51 

Не в сети
Аватара пользователя
Дата регистрации:
17 май 2019, 21:15
Возраст: 22
Спасибо: 2 / 0
Сообщения: 262
Год выпуска: 2020
Производство: Великобритания, США / 20th Century Fox Film Corporation, Marv Films, Marv Studios, Twentieth Century Fox, Weta Digital
Жанр: Боевик, комедия, приключения
Режиссер: Мэттью Вон
Продюсеры: Адам Болинг, Дэвид Рейд, Мэттью Вон
Актеры: Мэттью Гуд, Джемма Артертон, Аарон Тейлор-Джонсон, Рэйф Файнс, Стэнли Туччи, Даниэль Брюль, Том Холландер, Рис Иванс, Чарльз Дэнс, Харрис Дикинсон

Описание: «Kingsman» — организация супершпионов, действующая на благо человечества вдали от любопытных глаз. И один из первых и самых талантливых оперативников в истории организации — Конрад, молодой и наглый сын герцога Оксфордского. Как и многие его друзья он мечтал служить на благо Англии, но в итоге оказался втянутым в тайный мир шпионов и убийц.

Перевод: Дублированный
Субтитры: Нет
Дата мировой премьеры: 12 февраля 2020
Дата российской премьеры: 27 февраля 2020, «Двадцатый Век Фокс СНГ»



Продолжительность: 00:02:22
Качество видео: WEBRip 1080p[hr]Видео: H264, 1920x800, 34,5 Мбит/сек
Аудио 1: MP3 2.0, 128 Кбит/сек [Русский - дублированный]
Аудио 2: DTS 5.1, 4630 Кбит/сек [Английский - оригинал]

Общее
Уникальный идентификатор : 221608645059461238680951964661268683236 (0xA6B845C58AE3A333EC2B77B2110519E4)
Полное имя : V:TorrentsThe King's Man (2020) WEBRip [1080p] Trailer №2.mkv
Формат : Matroska
Версия формата : Version 4 / Version 2
Размер файла : 662 Мбайт
Продолжительность : 2 м. 22 с.
Общий поток : 38,9 Мбит/сек
Дата кодирования : UTC 2019-10-07 16:29:10
Программа кодирования : mkvmerge v38.0.0 ('The Silent Type') 64-bit
Библиотека кодирования : libebml v1.3.9 + libmatroska v1.5.2

Видео
Идентификатор : 1
Формат : AVC
Формат/Информация : Advanced Video Codec
Профиль формата : High@L4.1
Настройки формата : CABAC / 4 Ref Frames
Параметр CABAC формата : Да
Параметр RefFrames формата : 4 кадра
Идентификатор кодека : V_MPEG4/ISO/AVC
Продолжительность : 2 м. 21 с.
Битрейт : 34,5 Мбит/сек
Ширина : 1920 пикселей
Высота : 800 пикселей
Соотношение сторон : 2,40:1
Режим частоты кадров : Постоянный
Частота кадров : 23,976 (24000/1001) кадра/сек
Цветовое пространство : YUV
Субдискретизация насыщенности : 4:2:0
Битовая глубина : 8 бит
Тип развёртки : Прогрессивная
Бит/(Пиксели*Кадры) : 0.936
Размер потока : 581 Мбайт (88%)
Default : Да
Forced : Нет
Цветовой диапазон : Limited
Основные цвета : BT.709
Характеристики трансфера : BT.709
Коэффициенты матрицы : BT.709

Аудио #1
Идентификатор : 2
Формат : MPEG Audio
Версия формата : Version 1
Профиль формата : Layer 3
Настройки формата : Joint stereo / MS Stereo
Режим : Joint stereo
Расширение режима : MS Stereo
Идентификатор кодека : A_MPEG/L3
Идентификатор кодека/Подсказка : MP3
Продолжительность : 2 м. 22 с.
Вид битрейта : Постоянный
Битрейт : 128 Кбит/сек
Каналы : 2 канала
Частота : 48,0 КГц
Частота кадров : 41,667 кадра/сек (1152 SPF)
Метод сжатия : С потерями
Размер потока : 2,18 Мбайт (0%)
Заголовок : Dub
Язык : Russian
Default : Да
Forced : Нет

Аудио #2
Идентификатор : 3
Формат : DTS
Формат/Информация : Digital Theater Systems
Профиль формата : MA / Core
Режим : 16
Параметр Endianness формата : Big
Идентификатор кодека : A_DTS
Продолжительность : 2 м. 22 с.
Вид битрейта : Переменный / Постоянный
Битрейт : 4630 Кбит/сек / 1509 Кбит/сек
Каналы : 6 каналов
Расположение каналов : Front: L C R, Side: L R, LFE
Частота : 48,0 КГц
Частота кадров : 93,750 кадра/сек (512 SPF)
Битовая глубина : 24 бит
Метод сжатия : Без потерь / Lossy
Размер потока : 78,7 Мбайт (12%)
Язык : English
Default : Нет
Forced : Нет



Книжный торрент трекер



Вернуться к началу
 Профиль Отправить личное сообщение  
 
   Похожие торренты   Автор   Торрент   Размер 
В этой теме нет новых непрочитанных сообщений. Человек-паук: Вдали от дома / Spider-Man: Far from Home [Фантастика, боевик, приключения, 2019] BDRemux 1080p, Dub [iTunes] [3D-Video]

salma3

1 | 4

35.87 ГБ

В этой теме нет новых непрочитанных сообщений. Плохие парни навсегда / Bad Boys for Life [Боевик, триллер, комедия, 2020] WEBRip 1080p, Dub [Трейлер №1]

salma3

0 | 0

671.02 МБ

В этой теме нет новых непрочитанных сообщений. Леший / Man-Thing [Ужасы, фантастика, боевик, 2005] WEB-DL 1080p, Dub

salma3

2 | 3

8.61 ГБ

В этой теме нет новых непрочитанных сообщений. Леший / Man-Thing [ужасы, фантастика, боевик, 2005] HDTVRip 720p, Dub

K15

2 | 5

4.36 ГБ

В этой теме нет новых непрочитанных сообщений. Человек-паук: Вдали от дома / Spider-Man: Far from Home (2019) BDRip 1080p, Dub [iTunes] [3D-Video]

salma3

185 | 64

10.31 ГБ

В этой теме нет новых непрочитанных сообщений. Леший / Man-Thing [Ужасы, фантастика, 2005] WEB-DLRip-720, Dub

salma3

0 | 0

2.54 ГБ

В этой теме нет новых непрочитанных сообщений. Царь Скорпионов: Книга Душ / The Scorpion King: Book of Souls [Фэнтези, боевик, приключения, 2018] BDRemux 1080p, Dub

salma3

0 | 0

26.84 ГБ


Начать новую тему Ответить на тему  [ 1 сообщение ] 




Для Мосгорсуда, Роскомнадзора и рекламодателей:: mosgorsud-torrent[собачка]yandex.ru
cron