Торрент файл
скачать торрент магнет ссылка Добавлен: 25 дек 2016, 23:24
Размер: 44.25 МБ
Сидеров: 200
Личеров: 37
Автор

СообщениеДобавлено: 25 дек 2016, 23:24 

Не в сети
Супермодератор
Аватара пользователя
Дата регистрации:
15 фев 2012, 16:44
Возраст: 27
Спасибо: 5682 / 2108
Сообщения: 24365
Перевод: Английский, субтитры: отсутствуют
Формат: WEBRip, MKV, H.264, AAC
Страна: США
Режиссер: Ридли Скотт
Жанр: Ужасы, Фантастика, Боевик, Триллер
Продолжительность: 00:02:13
Год выпуска: 2017
В ролях: Майкл Фассбендер, Кэтрин Уотерстон, Джеймс Франко, Нуми Рапас, Гай Пирс, Билли Крудап, Кармен Эджого, Дэнни МакБрайд, Демиан Бишир, Калли Эрнандес

Описание: Выжившие члены команды «Прометея» Элизабет и андроид Дэвид сделали первый шаг навстречу разгадке тайны инженеров. Теперь пришло время узнать остальную правду, которая укрыта на родной планете белесых великанов — Рай.


Видео: 1920x1080 (16:9), 23,981 fps, AVC MPEG-4, High@L4 ~ 2650 Кбит/сек, 0.053 bit/pixel
Аудио: 44,1 kHz, AAC, (L,R) 2 ch, ~126 kbps

Дата мировой премьеры: 17 мая 2017
Дата российской премьеры: 18 мая 2017, «Двадцатый Век Фокс СНГ»


Формат : MPEG-4
Профиль формата : Base Media
Идентификатор кодека : isom (isom/iso2/avc1/mp41)
Размер файла : 44,2 Мбайт
Продолжительность : 2 м. 13 с.
Режим общего битрейта : Переменный
Общий поток : 2779 Кбит/сек
Дата кодирования : UTC 2016-12-23 07:50:35
Дата пометки : UTC 2016-12-23 07:50:35

Видео
Идентификатор : 1
Формат : AVC
Формат/Информация : Advanced Video Codec
Профиль формата : High@L4
Параметр CABAC формата : Да
Параметр ReFrames формата : 2 кадра
Идентификатор кодека : avc1
Идентификатор кодека/Информация : Advanced Video Coding
Продолжительность : 2 м. 13 с.
Битрейт : 2650 Кбит/сек
Ширина : 1920 пикселей
Высота : 1080 пикселей
Соотношение сторон : 16:9
Режим частоты кадров : Переменный
Частота кадров : 23,976 (24000/1001) кадра/сек
Минимальная частота кадров : 23,974 кадра/сек
Максимальная частота кадров : 23,981 кадра/сек
Цветовое пространство : YUV
Субдискретизация насыщенности : 4:2:0
Битовая глубина : 8 бит
Тип развёртки : Прогрессивная
Бит/(Пиксели*Кадры) : 0.053
Размер потока : 42,2 Мбайт (95%)
Дата кодирования : UTC 2016-12-23 07:50:35
Дата пометки : UTC 2016-12-23 07:50:35
Цветовой диапазон : Limited
Основные цвета : BT.709
Характеристики трансфера : BT.709
Коэффициенты матрицы : BT.709

Аудио
Идентификатор : 2
Формат : AAC
Формат/Информация : Advanced Audio Codec
Профиль формата : LC
Идентификатор кодека : 40
Продолжительность : 2 м. 13 с.
Вид битрейта : Переменный
Битрейт : 126 Кбит/сек
Каналы : 2 канала
Расположение каналов : Front: L R
Частота : 44,1 КГц
Частота кадров : 43,066 кадра/сек (1024 spf)
Метод сжатия : С потерями
Размер потока : 2,00 Мбайт (5%)
Default : Да
Alternate group : 1
Дата кодирования : UTC 2016-12-23 07:50:38
Дата пометки : UTC 2016-12-23 07:50:38


_________________
Проголосуй за трекер Открытый торрент трекер - RUS-MEDIA.ORG




реклама партнёра


Вернуться к началу
 Профиль Отправить личное сообщение  
 
   Похожие торренты   Автор   Торрент   Размер 
В этой теме нет новых непрочитанных сообщений. Трансформеры 5 / Transformers: The Last Knight [Фантастика, боевик, триллер, приключения, 2017] WEBRip 1080p, Dub [Трейлер]

salma3

544 | 19

167.48 МБ

В этой теме нет новых непрочитанных сообщений. Сделка / The Covenant [ужасы, 2017] WEBRip 1080p, Avo

salma3

110 | 49

3.14 ГБ

В этой теме нет новых непрочитанных сообщений. Стражи Галактики 2 / Guardians of the Galaxy Vol. 2 [Фантастика, боевик, 2017] WEBRip 1080p, Dub [Трейлер]

salma3

490 | 32

568.36 МБ

В этой теме нет новых непрочитанных сообщений. Чужой 4: Воскрешение / Alien: Resurrection [фантастика, боевик, триллер, 1997] BDRip 1080p, Dub+Sub [Special Edition]

salma3

52 | 22

4.37 ГБ

В этой теме нет новых непрочитанных сообщений. Чудо-Женщина / Wonder Woman [Фантастика, фэнтези, боевик, приключения, 2017] WEBRip 1080p, Dub [Трейлер]

salma3

198 | 9

355.91 МБ

В этой теме нет новых непрочитанных сообщений. Мумия / The Mummy [Ужасы, фэнтези, боевик, приключения, 2017] WEBRip-AVC-720p, Dub [Трейлер]

salma3

1584 | 121

78.88 МБ

В этой теме нет новых непрочитанных сообщений. Гадкий я 3 / Despicable Me 3 (2017) WEBRip 1080p | Трейлер

marya111

388 | 7

122.52 МБ


Начать новую тему Ответить на тему  [ 1 сообщение ] 




Для Мосгорсуда, Роскомнадзора и рекламодателей:: mosgorsud-torrent[собачка]yandex.ru