Торрент файл
скачать торрент магнет ссылка Добавлен: 09 дек 2016, 14:17
Размер: 568.36 МБ
Сидеров: 490
Личеров: 32
Автор

СообщениеДобавлено: 09 дек 2016, 14:17 

Не в сети
Супермодератор
Аватара пользователя
Дата регистрации:
15 фев 2012, 16:44
Возраст: 27
Спасибо: 5528 / 2103
Сообщения: 21158
Год выпуска: 2017
Производство: США / Marvel Studios Inc., Walt Disney Studios Motion Pictures
Жанр: Фантастика, боевик
Перевод: Дублированный
Режиссер: Джеймс Ганн
Продюсеры: Кевин Файги, Виктория Алонсо, Луис Д’Эспозито

Актеры: Карен Гиллан, Крис Пратт, Зои Салдана, Сильвестр Сталлоне, Брэдли Купер, Аарон Шварц, Вин Дизель, Крис Салливан, Дэйв Батиста, Шон Ганн

Описание фильма:
Продолжение приключения команды, которая будет разгадывать тайну истинного происхождения Питера Квилла.


Дата мировой премьеры: 25 апреля 2017
Дата российской премьеры: 4 мая 2017, «WDSSPR» 3D IMAX





Продолжительность: 00:02:14
Качество видео: WEBRip
Видеокодек: MPEG-4 AVC/H.264
Битрейт видео: ~35,0 Мбит/сек
Размер кадра: 1920x808
Аудиокодек: AAC 5.1
Битрейт аудио: 637 Кбит/сек
Общее
Уникальный идентификатор : 203644862315968259722929745976090725049 (0x993492E6E2079B6E985323FE20248AB9)
Полное имя : F:ВидеоGuardians of the Galaxy Vol. 2 (2017) WEBRip [1080p] Trailer.mkv
Формат : Matroska
Версия формата : Version 4 / Version 2
Размер файла : 568 Мбайт
Продолжительность : 2 м. 13 с.
Общий поток : 35,6 Мбит/сек
Дата кодирования : UTC 2016-12-07 18:36:31
Программа кодирования : mkvmerge v9.6.0 ('Slave To Your Mind') 64bit
Библиотека кодирования : libebml v1.3.4 + libmatroska v1.4.5
Видео
Идентификатор : 1
Формат : AVC
Формат/Информация : Advanced Video Codec
Профиль формата : High@L5
Параметр CABAC формата : Да
Параметр ReFrames формата : 6 кадров
Идентификатор кодека : V_MPEG4/ISO/AVC
Продолжительность : 2 м. 13 с.
Битрейт : 35,0 Мбит/сек
Ширина : 1920 пикселей
Высота : 808 пикселей
Соотношение сторон : 2,40:1
Соотношение сторон в оригинале : 2,40:1
Режим частоты кадров : Постоянный
Частота кадров : 24,000 кадра/сек
Цветовое пространство : YUV
Субдискретизация насыщенности : 4:2:0
Битовая глубина : 8 бит
Тип развёртки : Прогрессивная
Бит/(Пиксели*Кадры) : 0.940
Размер потока : 558 Мбайт (98%)
Библиотека кодирования : x264 core 148 r2638M 7599210
Настройки программы : cabac=1 / ref=6 / deblock=1:-2:-2 / analyse=0x3:0x133 / me=tesa / subme=11 / psy=1 / psy_rd=1.05:0.10 / mixed_ref=1 / me_range=16 / chroma_me=1 / trellis=2 / 8x8dct=1 / cqm=0 / deadzone=21,11 / fast_pskip=0 / chroma_qp_offset=-3 / threads=9 / lookahead_threads=1 / sliced_threads=0 / nr=0 / decimate=1 / interlaced=0 / bluray_compat=0 / constrained_intra=0 / bframes=6 / b_pyramid=2 / b_adapt=2 / b_bias=0 / direct=3 / weightb=1 / open_gop=0 / weightp=2 / keyint=240 / keyint_min=24 / scenecut=40 / intra_refresh=0 / rc_lookahead=40 / rc=2pass / mbtree=1 / bitrate=35000 / ratetol=1.0 / qcomp=0.70 / qpmin=3 / qpmax=69 / qpstep=4 / cplxblur=20.0 / qblur=0.5 / ip_ratio=1.40 / aq=2:1.00
Default : Да
Forced : Нет
Аудио
Идентификатор : 2
Формат : AAC
Формат/Информация : Advanced Audio Codec
Профиль формата : LC
Идентификатор кодека : A_AAC
Продолжительность : 2 м. 13 с.
Битрейт : 637 Кбит/сек
Каналы : 6 каналов
Расположение каналов : Front: L C R, Side: L R, LFE
Частота : 48,0 КГц
Частота кадров : 46,875 кадров/сек (1024 spf)
Метод сжатия : С потерями
Размер потока : 10,2 Мбайт (2%)
Default : Да
Forced : Нет


_________________
Проголосуй за трекер Открытый торрент трекер - RUS-MEDIA.ORG

Не забудьте оставить комментарий!



реклама партнёра


Вернуться к началу
 Профиль Отправить личное сообщение  
 
   Похожие торренты   Автор   Торрент   Размер 
В этой теме нет новых непрочитанных сообщений. Стражи Галактики / Guardians of the Galaxy [Фантастика, боевик, приключения, 2014] BDRip 1080p, Dub+Sub [Лицензия]

Dracon

1204 | 64

5.99 ГБ

В этой теме нет новых непрочитанных сообщений. Стражи Галактики / Guardians of the Galaxy [фантастика, боевик, приключения, 2014] BDRip 1080p, dub [Чистый звук]

Dracon

917 | 7

9.07 ГБ

В этой теме нет новых непрочитанных сообщений. Стражи Галактики / Guardians of the Galaxy [Фантастика, боевик, приключения, 2014] BDRip 1080p, Dub [iTunes Russia]

Dracon

13 | 3

13.07 ГБ

В этой теме нет новых непрочитанных сообщений. Стражи Галактики / Guardians of the Galaxy [Фантастика, боевик, приключения, 2014] BDRip 1080p, Dub+Sub [Лицензия | 3D-Video]

Dracon

1156 | 61

7.61 ГБ

В этой теме нет новых непрочитанных сообщений. Стражи Галактики / Guardians of the Galaxy [Фантастика, боевик, приключения, 2014] BDRip 1080p, Dub+Sub [iTunes Russia]

Dracon

134 | 8

29.93 ГБ

В этой теме нет новых непрочитанных сообщений. Стражи Галактики / Guardians of the Galaxy [Фантастика, боевик, приключения, 2014] BDRip 1080p, Dub [3D-Video | iTunes Russia]

Dracon

23 | 6

13.45 ГБ

В этой теме нет новых непрочитанных сообщений. Стражи Галактики: Истоки / Marvel's Guardians of the Galaxy: Origins [S01] (Лео Райли) [Мультсериал, фантастика, боевик, приключения, 2015] WEB-DL 1080p, dvo+sub

Dracon

523 | 63

909.83 МБ


Начать новую тему Ответить на тему  [ 1 сообщение ] 




Для Мосгорсуда, Роскомнадзора и рекламодателей:: mosgorsud-torrent[собачка]yandex.ru