Торрент файл
скачать торрент магнет ссылка Добавлен: 09 дек 2016, 14:15
Размер: 167.48 МБ
Сидеров: 544
Личеров: 19
Автор

СообщениеДобавлено: 09 дек 2016, 14:15 

Не в сети
Супермодератор
Аватара пользователя
Дата регистрации:
15 фев 2012, 16:44
Возраст: 27
Спасибо: 5528 / 2103
Сообщения: 21158
Год выпуска: 2017
Производство: США / Paramount Pictures, Hasbro Inc.
Жанр: Фантастика, боевик, триллер, приключения
Перевод: Дублированный
Режиссер: Майкл Бэй
Продюсеры: Йен Брайс, Том ДеСанто, Лоренцо Ди Бонавентура

Актеры: Энтони Хопкинс, Марк Уолберг, Лора Хэддок, Джон Гудман, Изабелла Монер, Стэнли Туччи, Джон Туртурро, Джош Дюамель, Жан Дюжарден, Джил Бирмингем

Описание фильма:
После битвы в Гонконге Оптимус Прайм сталкивается с новой угрозой, с которой он не может бороться в одиночку. Таким образом, он должен искать новых союзников, чтобы спасти Землю и Вселенную. В то время как Оптимус покидает Землю, Бамблби, Хаунд, Дрифт, Кроссхейз, Трейлбрекер, Блёр и Диноботы пытаются помешать Гальватрону построить космический мост, чтобы он не смог принести на Землю большую опасность. В то же время люди возобновляют создание Трансформеров, чтобы помочь Автоботам.


Дата мировой премьеры: 21 июня 2017
Дата российской премьеры: 22 июня 2017, «Централ Партнершип» 3D IMAX





Продолжительность: 00:02:26
Качество видео: WEBRip
Видеокодек: MPEG-4 AVC/H.264
Битрейт видео: ~9500 Кбит/сек
Размер кадра: 1920x1056
Аудиокодек: AAC 2.0
Битрейт аудио: 126 Кбит/сек
Общее
Уникальный идентификатор : 217939099562337172470562796336851611267 (0xA3F58B35D21D5914805FB16B41066E83)
Полное имя : F:ВидеоTransformers. The Last Knight (2017) WEBRip [1080p] Trailer.mkv
Формат : Matroska
Версия формата : Version 4 / Version 2
Размер файла : 167 Мбайт
Продолжительность : 2 м. 26 с.
Общий поток : 9608 Кбит/сек
Дата кодирования : UTC 2016-12-07 18:35:05
Программа кодирования : mkvmerge v9.6.0 ('Slave To Your Mind') 64bit
Библиотека кодирования : libebml v1.3.4 + libmatroska v1.4.5
Видео
Идентификатор : 1
Формат : AVC
Формат/Информация : Advanced Video Codec
Профиль формата : Main@L4
Параметр CABAC формата : Нет
Параметр ReFrames формата : 2 кадра
Идентификатор кодека : V_MPEG4/ISO/AVC
Продолжительность : 2 м. 25 с.
Битрейт : 9548 Кбит/сек
Ширина : 1920 пикселей
Высота : 1056 пикселей
Соотношение сторон : 16:9
Режим частоты кадров : Постоянный
Частота кадров : 23,976 (24000/1001) кадра/сек
Цветовое пространство : YUV
Субдискретизация насыщенности : 4:2:0
Битовая глубина : 8 бит
Тип развёртки : Прогрессивная
Бит/(Пиксели*Кадры) : 0.196
Размер потока : 165 Мбайт (99%)
Default : Да
Forced : Нет
Цветовой диапазон : Limited
Основные цвета : BT.709
Характеристики трансфера : BT.709
Коэффициенты матрицы : BT.709
Аудио
Идентификатор : 2
Формат : AAC
Формат/Информация : Advanced Audio Codec
Профиль формата : LC
Идентификатор кодека : A_AAC
Продолжительность : 2 м. 25 с.
Битрейт : 126 Кбит/сек
Каналы : 2 канала
Расположение каналов : Front: L R
Частота : 44,1 КГц
Частота кадров : 43,066 кадра/сек (1024 spf)
Метод сжатия : С потерями
Задержка видео : 1 с. 0 мс.
Размер потока : 2,17 Мбайт (1%)
Default : Да
Forced : Нет


_________________
Проголосуй за трекер Открытый торрент трекер - RUS-MEDIA.ORG

Не забудьте оставить комментарий!



реклама партнёра


Вернуться к началу
 Профиль Отправить личное сообщение  
 
   Похожие торренты   Автор   Торрент   Размер 
В этой теме нет новых непрочитанных сообщений. Трансформеры: Эпоха истребления / Transformers: Age Of Extinction [Фантастика, боевик, приключения, 2014] HDTVRip 1080p, Dub [Трейлер]

salma3

90 | 3

218.74 МБ

В этой теме нет новых непрочитанных сообщений. Чудо-Женщина / Wonder Woman [Фантастика, фэнтези, боевик, приключения, 2017] WEBRip 1080p, Dub [Трейлер]

salma3

198 | 9

355.91 МБ

В этой теме нет новых непрочитанных сообщений. Чужой: Завет / Alien: Covenant [Ужасы, Фантастика, Боевик, Триллер, 2017] WEBRip 1080p, [Трейлер]

salma3

324 | 45

44.25 МБ

В этой теме нет новых непрочитанных сообщений. Трансформеры: Эпоха истребления / Transformers: Age of Extinction [Фантастика, боевик, приключения, 2014] BDRip 1080p, Dub+Sub [iTunes Russia]

Dracon

101 | 4

21.38 ГБ

В этой теме нет новых непрочитанных сообщений. Трансформеры: Эпоха истребления 2D, 3D / Transformers: Age of Extinction 2D, 3D [фантастика, боевик, приключения, 2014] BDRemux 1080p, Dub [3D-Video | IMAX]

Dracon

23 | 11

38.59 ГБ

В этой теме нет новых непрочитанных сообщений. Трансформеры: Эпоха истребления / Transformers: Age of Extinction [Фантастика, боевик, приключения, 2014] BDRip 1080p, Dub+Sub [3D-Video | лицензия]

Dracon

102 | 11

27.08 ГБ

В этой теме нет новых непрочитанных сообщений. Трансформеры: Эпоха истребления / Transformers: Age of Extinction [фантастика, боевик, приключения, 2014] BDRip 1080p, dub [3D-Video | Чистый звук]

Dracon

223 | 33

27.08 ГБ


Начать новую тему Ответить на тему  [ 1 сообщение ] 




Для Мосгорсуда, Роскомнадзора и рекламодателей:: mosgorsud-torrent[собачка]yandex.ru