Торрент файл
скачать торрент магнет ссылка Добавлен: 08 дек 2014, 21:27
Размер: 328.03 МБ
Сидеров: 305
Личеров: 11
Автор

СообщениеДобавлено: 08 дек 2014, 21:27 

В сети
Супермодератор
Аватара пользователя
Дата регистрации:
15 фев 2012, 16:44
Возраст: 28
Спасибо: 6468 / 2129
Сообщения: 40670
Год выпуска: 2015
Жанр: Боевик, триллер, криминал
Режиссер: Оливье Мегатон

В ролях: Лиам Нисон, Мэгги Грэйс, Фамке Янссен, Дюгрей Скотт, Джонни Уэстон, Форест Уитакер, Джон Грайз, Ал Сапиенца, Лиленд Орсер, Эндрю Ховард

О фильме: Жизнь бывшего правительственного агента Брайана Миллса рушится, когда его обвиняют в убийстве, которого он не совершал. Преследуемый опытным инспектором полиции, Миллс пытается отследить настоящего убийцу…



Страна: Франция, Canal+ [fr], Ciné, EuropaCorp, M6 Films
Продолжительность: 00:02:32
Перевод: Профессиональный (полное дублирование)

Файл
Формат: MKV
Качество: HD 1080p
Видео: MPEG-4 AVC, 18 Мбит/с, 1920x1080
Аудио: АС3, 6 ch, 448 Кбит/с


Общее
Уникальный идентификатор : 324414740861905044555369167707574823526 (0xF41001A24B365A2186AD860492D6EA66)
Полное имя : E:ТрейлерыTak3n_trailer_rus_HD_1080p.mkv
Формат : Matroska
Версия формата : Version 4 / Version 2
Размер файла : 328 Мбайт
Продолжительность : 2 м. 32 с.
Общий поток : 18,1 Мбит/сек
Программа кодирования : Lavf55.37.101
Библиотека кодирования : Lavf55.37.101

Видео
Идентификатор : 1
Формат : AVC
Формат/Информация : Advanced Video Codec
Профиль формата : Baseline@L4.1
Параметр CABAC формата : Нет
Параметр ReFrames формата : 1 кадр
Идентификатор кодека : V_MPEG4/ISO/AVC
Продолжительность : 2 м. 32 с.
Битрейт : 18,0 Мбит/сек
Ширина : 1920 пикселей
Высота : 1080 пикселей
Соотношение сторон : 16:9
Режим частоты кадров : Постоянный
Частота кадров : 23,976 кадра/сек
Цветовое пространство : YUV
Субдискретизация насыщенности : 4:2:0
Битовая глубина : 8 бит
Тип развёртки : Прогрессивная
Бит/(Пиксели*Кадры) : 0.362
Размер потока : 313 Мбайт (96%)
Библиотека кодирования : x264 core 119
Настройки программы : cabac=0 / ref=1 / deblock=0:0:0 / analyse=0:0 / me=dia / subme=0 / psy=1 / psy_rd=1.00:0.00 / mixed_ref=0 / me_range=16 / chroma_me=1 / trellis=0 / 8x8dct=0 / cqm=0 / deadzone=21,11 / fast_pskip=1 / chroma_qp_offset=0 / threads=4 / sliced_threads=0 / nr=0 / decimate=1 / interlaced=0 / bluray_compat=0 / constrained_intra=0 / bframes=0 / weightp=0 / keyint=250 / keyint_min=23 / scenecut=0 / intra_refresh=0 / rc=abr / mbtree=0 / bitrate=18000 / ratetol=1.0 / qcomp=0.60 / qpmin=0 / qpmax=69 / qpstep=4 / ip_ratio=1.40 / aq=0
Default : Да
Forced : Нет
HANDLER_NAME : VideoHandler

Аудио
Идентификатор : 2
Формат : AC-3
Формат/Информация : Audio Coding 3
Расширение режима : CM (complete main)
Параметр Endianness формата : Big
Идентификатор кодека : A_AC3
Продолжительность : 2 м. 32 с.
Вид битрейта : Постоянный
Битрейт : 448 Кбит/сек
Каналы : 6 каналов
Расположение каналов : Front: L C R, Side: L R, LFE
Частота : 48,0 КГц
Битовая глубина : 16 бит
Метод сжатия : С потерями
Задержка видео : -5 мс.
Размер потока : 8,14 Мбайт (2%)
Default : Да
Forced : Нет
Дата кодирования : UTC 2014-09-30 12:07:36


_________________
Проголосуй за трекер Открытый торрент трекер - RUS-MEDIA.ORG

Проголосуй Открытый торрент трекер - RUS-MEDIA.ORG



реклама партнёра


Вернуться к началу
 Профиль Отправить личное сообщение  
 
   Похожие торренты   Автор   Торрент   Размер 
В этой теме нет новых непрочитанных сообщений. Форсаж 7 / Furious 7 [боевик, триллер, криминал, 2015] HD 1080p, Dub [Трейлер]

salma3

2330 | 30

152.66 МБ

В этой теме нет новых непрочитанных сообщений. Перевозчик: Наследие / The Transporter Refueled [Боевик, триллер, криминал, 2015] WEBRip 1080p, Mvo [Трейлер]

salma3

270 | 13

107.71 МБ

В этой теме нет новых непрочитанных сообщений. Перевозчик: Наследие / The Transporter Refueled [боевик, триллер, криминал, 2015] WEBRip 1080p, Dib [Трейлер]

salma3

247 | 5

91.41 МБ

В этой теме нет новых непрочитанных сообщений. Заложница 3 / Taken 3 (Оливье Мегатон) [боевик, триллер, криминал, 2014] BDRip 1080p, Dub+Sub [iTunes]

Dracon

22 | 6

15.13 ГБ

В этой теме нет новых непрочитанных сообщений. Форсаж 8 / The Fate of the Furious [Боевик, триллер, криминал, 2017] HD 1080p, Dub [Трейлер]

salma3

1488 | 101

241.06 МБ

В этой теме нет новых непрочитанных сообщений. Заложница: Дилогия / Taken: Dilogy [боевик, триллер, криминал , 2008-2012] BDRip, Dub

salma3

123 | 16

2.91 ГБ

В этой теме нет новых непрочитанных сообщений. Заложница 3 / Taken 3 (Оливье Мегатон) [Боевик, Триллер, 2014] HDTVRip 1080p, dub [чистый звук]

Dracon

67 | 3

5.94 ГБ


Начать новую тему Ответить на тему  [ 1 сообщение ] 




Для Мосгорсуда, Роскомнадзора и рекламодателей:: mosgorsud-torrent[собачка]yandex.ru