Торрент файл
скачать торрент магнет ссылка Добавлен: 30 ноя 2019, 21:21
Размер: 1.34 ГБ
Сидеров: 0
Личеров: 0
Автор

СообщениеДобавлено: 30 ноя 2019, 21:21 

Не в сети
Супермодератор
Аватара пользователя
Дата регистрации:
15 фев 2012, 16:44
Возраст: 30
Спасибо: 8135 / 2148
Сообщения: 94991
Кубок мира 2019-20. 1-й этап. Эстерсунд (Швеция)
Одиночная смешанная эстафета



Год выпуска: 30.11.2019
Вид спорта: Биатлон
Комментарий: Профессиональный
Язык комментариев: Русский (Губерниев) / Интершум


Описание: Кубок мира 2019-20. 1-й этап. Эстерсунд (Швеция). Одиночная смешанная эстафета. Только гонка.


Автор рипа: Настольный теннисист

Качество: HDTVRip
Формат: MKV
Видео кодек: H.264
Аудио кодек: AС3
Видео: MPEG4 Video (H.264) 1280x720 (16:9) 50fps 4000kbps
Аудио: Dolby AC3 48000Hz 2ch 192kbps



00:42:33




Код:
General
Unique ID                                : 7739180299084991782201352320469305544 (0x5D2830C6C27728AAEC497BF4D1E08C8)
Complete name                            : W:торрентБиатлон КМ 19-20 Эстерсунд Сингл Микст.mkv
Format                                   : Matroska
Format version                           : Version 2
File size                                : 1.34 GiB
Duration                                 : 42 min 33 s
Overall bit rate                         : 4 499 kb/s
Writing application                      : Lavf54.63.104
Writing library                          : Lavf54.63.104

Video
ID                                       : 1
Format                                   : AVC
Format/Info                              : Advanced Video Codec
Format profile                           : High@L4.1
Format settings                          : CABAC / 4 Ref Frames
Format settings, CABAC                   : Yes
Format settings, Reference frames        : 4 frames
Codec ID                                 : V_MPEG4/ISO/AVC
Duration                                 : 42 min 33 s
Bit rate                                 : 4 026 kb/s
Width                                    : 1 280 pixels
Height                                   : 720 pixels
Display aspect ratio                     : 16:9
Frame rate mode                          : Constant
Frame rate                               : 50.000 FPS
Color space                              : YUV
Chroma subsampling                       : 4:2:0
Bit depth                                : 8 bits
Scan type                                : Progressive
Bits/(Pixel*Frame)                       : 0.087
Stream size                              : 1.20 GiB (89%)
Default                                  : No
Forced                                   : No

Audio #1
ID                                       : 2
Format                                   : AC-3
Format/Info                              : Audio Coding 3
Commercial name                          : Dolby Digital
Codec ID                                 : A_AC3
Duration                                 : 42 min 33 s
Bit rate mode                            : Constant
Bit rate                                 : 192 kb/s
Channel(s)                               : 2 channels
Channel layout                           : L R
Sampling rate                            : 48.0 kHz
Frame rate                               : 31.250 FPS (1536 SPF)
Compression mode                         : Lossy
Stream size                              : 58.4 MiB (4%)
Language                                 : Russian
Service kind                             : Complete Main
Default                                  : Yes
Forced                                   : No

Audio #2
ID                                       : 3
Format                                   : AC-3
Format/Info                              : Audio Coding 3
Commercial name                          : Dolby Digital
Codec ID                                 : A_AC3
Duration                                 : 42 min 33 s
Bit rate mode                            : Constant
Bit rate                                 : 192 kb/s
Channel(s)                               : 2 channels
Channel layout                           : L R
Sampling rate                            : 48.0 kHz
Frame rate                               : 31.250 FPS (1536 SPF)
Compression mode                         : Lossy
Stream size                              : 58.4 MiB (4%)
Service kind                             : Complete Main
Default                                  : No
Forced                                   : No


_________________
Проголосуй за трекер Открытый торрент трекер - RUS-MEDIA.ORG

Проголосуй Открытый торрент трекер - RUS-MEDIA.ORG


Скачать книги и аудио книги через торрент


Вернуться к началу
 Профиль Отправить личное сообщение  
 
   Похожие торренты   Автор   Торрент   Размер 
В этой теме нет новых непрочитанных сообщений. Биатлон. Кубок мира 2019-20. 1-й этап. Эстерсунд (Швеция) Смешанная эстафета [30.11] (2019) HDTVRip 720р

salma3

0 | 0

2.42 ГБ

В этой теме нет новых непрочитанных сообщений. Биатлон. Кубок Мира 2017-18. 1-й этап. Эстерсунд (Швеция). Одиночная смешанная эстафета [26.11] (2017) IPTVRip

salma3

6 | 0

714.59 МБ

В этой теме нет новых непрочитанных сообщений. Биатлон. Кубок Мира 2017-18. 1-й этап. Эстерсунд (Швеция). Смешанная эстафета 2x6 + 2x7,5 км [26.11] (2017) IPTVRip

salma3

9 | 0

1.12 ГБ

В этой теме нет новых непрочитанных сообщений. Биатлон. Кубок Мира 2017-18. 1-й этап. Эстерсунд (Швеция). Смешанная эстафета 2x6 + 2x7,5 км [26.11] (2017) IPTV 1080i

salma3

3 | 0

4.9 ГБ

В этой теме нет новых непрочитанных сообщений. Биатлон. Кубок Мира 2016-17. 8-й этап. Контиолахти (Финляндия). Одиночная смешанная эстафета [11.03] (2017) HDTVRip 720p | 50 fps

salma3

45 | 13

1.27 ГБ

В этой теме нет новых непрочитанных сообщений. Биатлон. Кубок Мира 2016-17. 8-й этап. Контиолахти (Финляндия). Одиночная смешанная эстафета [11.03] (2017) HDTV 1080i

salma3

21 | 4

2.75 ГБ

В этой теме нет новых непрочитанных сообщений. Биатлон. Кубок Мира 2016-17. 8-й этап. Контиолахти (Финляндия). Смешанная эстафета [12.03] (2017) HDTVRip

salma3

6 | 1

1.11 ГБ


Начать новую тему Ответить на тему  [ 1 сообщение ] 




Для Мосгорсуда, Роскомнадзора и рекламодателей:: mosgorsud-torrent[собачка]yandex.ru
cron