COVID-19 - Последняя информация о коронавирусе на сайте Минздрава




Торрент файл
скачать торрент магнет ссылка Добавлен: 27 сен 2019, 01:21
Размер: 22.28 ГБ
Сидеров: 0
Личеров: 0
Автор

СообщениеДобавлено: 27 сен 2019, 01:21 

Не в сети
Супермодератор
Аватара пользователя
Дата регистрации:
15 фев 2012, 16:44
Возраст: 30
Спасибо: 8263 / 2148
Сообщения: 96287
Людвиг Минкус - Дон Кихот / Minkus - Don Quixote


Год выпуска: 19 февраля 2019г
Лейбл: Royal Opera House
Страна-производитель: Англия
Жанр: Балет
Продолжительность: 01:06:10+00:45:03+00:52:03
Язык: английский
Хореография: Carlos Acosta after Marius Petipa
Дирижёр: Martin Yates
Автор записи: hdsport


Исполнители:
Don Quixote: Christopher Saunders
Sancho Panza: Philip Mosley
Lorenzo: Gary Avis
Kitri: Akane Takada
Basilio: Alexander Campbell
Gamache: Thomas Whitehead
Espada: Valentino Zucchetti
Mercedes: Mayara Magri




Описание
:
Балет в 3-х действиях



Дополнительно:
Спасибо коллеге hdsport, за любезно предоставленную запись балета




Качество: HDTV (Feed)
Контейнер: TS
Видео кодек: H.264
Аудио кодек: AC-3
Видео: H.264 | 1920 x 1080i | 18,1 mb/s | 25 fps interlaced
Аудио: AC-3 | 48 Khz | 448 kb/s | 6 channels




Royal Opera House - Don Quixote




Пролог
Дон Кихот, начитавшись рыцарских романов, отправляется странствовать, чтобы громкими подвигами прославить свое имя. Оруженосцем он назначает преданного ему Санчо Пансу, человека трезвого и к мечтаниям не склонного.

Действие I
В Барселоне — праздничное оживление. Дочь трактирщика Китри любезничает с влюбленным в нее цирюльником Базилем. Отец Китри, Лоренцо, застав их вместе, прогоняет Базиля. Он хочет выдать дочь за богатого дворянина Гамаша. Цирюльник ей не пара, но Китри наотрез отказывается подчиниться воле отца.

В разгар веселья на площади появляются Дон Кихот со своим оруженосцем Санчо Пансой. Увидев трактирщика, Дон Кихот решает, что это владелец рыцарского замка, и почтительно приветствует его. Трактирщик отвечает Дон Кихоту тем же и приглашает его к себе. Санчо Панса остается на площади. Но когда молодежь пытается подшутить над ним, Дон Кихот спешит на помощь своему оруженосцу.

Увидев Китри, он принимает ее за прекрасную Дульсинею, которая являлась ему в мечтах и которую он избрал «дамой своего сердца».
Но Китри уже нет. Она убежала с Базилем. Лоренцо, Гамаш и Дон Кихот отправляются ее разыскивать.

Действие II
Картина 1
Китри и Базиль скрываются в таверне.
Приходят Лоренцо, Гамаш и Дон Кихот. Трактирщик хочет немедленно объявить о помолвке Китри и Гамаша, но Базиль, по уговору с Китри, разыгрывает сцену самоубийства. Китри «рыдает» над телом возлюбленного. Дон Кихот в благородном негодовании упрекает трактирщика в жестокосердии и, угрожая оружием, заставляет его согласиться на брак дочери с цирюльником. Базиль вскакивает. Ему уже ни к чему притворяться мертвым.

Картина 2
На поляне около мельницы раскинулся цыганский табор. Тут же расположился театр марионеток. Появляются Дон Кихот и Санчо Панса. Хозяин театра приглашает Дон Кихота посмотреть спектакль. Дон Кихот взволнованно следит за ходом пьесы и, забывая, что это театр, бросается на сцену, чтобы с оружием в руках защитить обиженных. Он ломает подмостки, расшвыривает кукол, а увидев мельницы, принимает их за злых волшебников, которых должен поразить. Но, зацепившись за мельничное крыло, он поднимается в воздух и падает на землю.

Картина 3
Израненный Дон Кихот и Санчо Панса в лесу. Дон Кихоту кажется, что лес полон чудищ и великанов. Санчо Панса укладывает Дон Кихота спать, а сам убегает за помощью. Дон Кихоту снится, что он видит Дульсинею, «даму своего сердца», окруженную дриадами и амурами.

Санчо Панса приводит герцога и герцогиню, охотившихся в лесу, и умоляет их помочь охваченному мечтами Дон Кихоту. Господа приглашают странствующего рыцаря к себе в замок.

Действие III
Замок герцога. Все готово к торжественному приему Дон Кихота. Герцог и герцогиня узнали от Санчо Пансы счастливую историю любви Китри и Базиля и любезно позволили справить их свадьбу в своем замке. Дон Кихота и Санчо Панса просят занять почетные места. Проходит торжественное шествие. Увидев Китри, Дон Кихот вновь узнает в ней «даму своих грез». Но герцог и Санчо Панса убеждают его, что это та самая дочь трактирщика, которой он помог соединиться с возлюбленным Базилем.
Праздник продолжается. Все благодарят доблестного рыцаря и его верного оруженосца.



Код:
Формат                                   : MPEG-TS
Размер файла                             : 9,05 Гбайт
Продолжительность                        : 1 ч. 6 м.
Режим общего битрейта                    : Переменный
Общий поток                              : 19,6 Мбит/сек

Видео
Идентификатор                            : 308 (0x134)
Идентификатор меню                       : 1 (0x1)
Формат                                   : AVC
Формат/Информация                        : Advanced Video Codec
Профиль формата                          : High@L4.1
Параметр CABAC формата                   : Да
Параметр ReFrames формата                : 4 кадра
Параметр GOP формата                     : M=3, N=24
Идентификатор кодека                     : 27
Продолжительность                        : 1 ч. 6 м.
Битрейт                                  : 18,2 Мбит/сек
Ширина                                   : 1920 пикселей
Высота                                   : 1080 пикселей
Соотношение сторон                       : 16:9
Частота кадров                           : 25,000 кадров/сек
Цветовое пространство                    : YUV
Субдискретизация насыщенности            : 4:2:0
Битовая глубина                          : 8 бит
Тип развёртки                            : Чересстрочная
Порядок развёртки                        : Верхнее поле первое
Бит/(Пиксели*Кадры)                      : 0.350
Размер потока                            : 8,39 Гбайт (93%)
Основные цвета                           : BT.709
Характеристики трансфера                 : BT.709
Коэффициенты матрицы                     : BT.709

Аудио
Идентификатор                            : 256 (0x100)
Идентификатор меню                       : 1 (0x1)
Формат                                   : AC-3
Формат/Информация                        : Audio Coding 3
Расширение режима                        : CM (complete main)
Параметр Endianness формата              : Big
Идентификатор кодека                     : 6
Продолжительность                        : 1 ч. 6 м.
Вид битрейта                             : Постоянный
Битрейт                                  : 448 Кбит/сек
Каналы                                   : 6 каналов
Расположение каналов                     : Front: L C R, Side: L R, LFE
Частота                                  : 48,0 КГц
Битовая глубина                          : 16 бит
Метод сжатия                             : С потерями
Задержка видео                           : -80 мс.
Размер потока                            : 212 Мбайт (2%)
Язык                                     : English


_________________
Проголосуй за трекер Открытый торрент трекер - RUS-MEDIA.ORG

Проголосуй Открытый торрент трекер - RUS-MEDIA.ORG


Скачать книги и аудио книги через торрент


Вернуться к началу
 Профиль Отправить личное сообщение  
 
   Похожие торренты   Автор   Торрент   Размер 
В этой теме нет новых непрочитанных сообщений. Nat Geo Wild: Захватчики / The Invaders [01-06] (2010-2011) HDTV 1080i | P1

salma3

4 | 9

13.57 ГБ

В этой теме нет новых непрочитанных сообщений. Nat Geo Wild: Царство океанов / Kingdom of the oceans [01-04] (2011) HDTV 1080i | P1

salma3

0 | 0

9.04 ГБ

В этой теме нет новых непрочитанных сообщений. Хищники Африки / Nat Geo Wild: Africa's Deadliest [01-09] (2011-2016) HDTV 1080i | P1

salma3

0 | 0

19.39 ГБ

В этой теме нет новых непрочитанных сообщений. Кровавый балет / Ballet of Blood [Ужасы, 2015] WEB-DLRip 720p, Dvo

zorgi

0 | 1

2.94 ГБ

В этой теме нет новых непрочитанных сообщений. Бессонница [01-16 из 16] [Боевик, 2014] HDTV 1080i

NTL

0 | 2

32.98 ГБ

В этой теме нет новых непрочитанных сообщений. Ковчег [Мелодрама, 2017] HDTV 1080i

salma3

110 | 7

3.7 ГБ

В этой теме нет новых непрочитанных сообщений. Икра [01-08 из 08] [Детектив, 2017] HDTV 1080i

salma3

0 | 0

26.6 ГБ


Начать новую тему Ответить на тему  [ 1 сообщение ] 




Для Мосгорсуда, Роскомнадзора и рекламодателей:: rstracker[собака]yandex.ru
cron