Торрент файл
скачать торрент магнет ссылка Добавлен: 07 июл 2018, 11:03
Размер: 9.68 ГБ
Сидеров: 0
Личеров: 0
Автор

СообщениеДобавлено: 07 июл 2018, 11:03 

Не в сети
Супермодератор
Аватара пользователя
Дата регистрации:
15 фев 2012, 16:44
Возраст: 28
Спасибо: 7226 / 2147
Сообщения: 68215
Телекомпания: Первый канал HD
Жанр: Спорт

Комментаторы: Павел Занозин, Александр Гришин

Описание: 06 июля 2018 года, пятница. 17:00 МСК
21-й Чемпионат Мира по футболу 2018 года. Плей-офф.
1/4 Финала. Уругвай — Франция
Стадион: Нижний Новгород (Нижний Новгород, Россия), 43319 зрителей (96 % при вместимости 44899)
Главный судья: Нестор Питана (Аргентина)
Ассистенты: Эрнан Майдана (Аргентина), Хуан Пабло Белатти (Аргентина)
Резервный: Алиреза Фагани (Иран)

Релиз от: Striker

Продолжительность: 01:50:38
Качество видео: HDTV
Язык озвучки: Русский
Субтитры: отсутствуют

Видео: AVC/H.264, 1920x1080 (16:9), ~11,3 Мbps
Аудио #1: AC3, 6 ch, 48 kHz, 384 Kbps
Аудио #2: MP2, 2 ch, 48 kHz, 192 Kbps
Код:
Общее
Идентификатор                            : 1 (0x1)
Полное имя                               : C:\Users\ADMIN\Downloads\Video\2018 FIFA World Cup\World.Cup.2018.Quarter-final.Uruguay-France.HDTV.1080i.ts
Формат                                   : MPEG-TS
Размер файла                             : 9,68 Гбайт
Продолжительность                        : 1 ч. 50 м.
Режим общего битрейта                    : Переменный
Общий поток                              : 12,5 Мбит/сек

Видео
Идентификатор                            : 205 (0xCD)
Идентификатор меню                       : 20105 (0x4E89)
Формат                                   : AVC
Формат/Информация                        : Advanced Video Codec
Профиль формата                          : High@L4
Настройки формата                        : CABAC / 4 Ref Frames
Параметр CABAC формата                   : Да
Параметр RefFrames формата               : 4 кадра
Идентификатор кодека                     : 27
Продолжительность                        : 1 ч. 50 м.
Битрейт                                  : 11,3 Мбит/сек
Ширина                                   : 1920 пикселей
Высота                                   : 1080 пикселей
Соотношение сторон                       : 16:9
Частота кадров                           : 25,000 кадров/сек
Стандарт вещания                         : Component
Цветовое пространство                    : YUV
Субдискретизация насыщенности            : 4:2:0
Битовая глубина                          : 8 бит
Тип развёртки                            : Чересстрочная
Метод сохранения типа развёртки          : Раздельные поля
Порядок развёртки                        : Верхнее поле первое
Бит/(Пиксели*Кадры)                      : 0.219
Размер потока                            : 8,75 Гбайт (90%)
Цветовой диапазон                        : Limited
Основные цвета                           : BT.709
Характеристики трансфера                 : BT.709
Коэффициенты матрицы                     : BT.709

Аудио #1
Идентификатор                            : 305 (0x131)
Идентификатор меню                       : 20105 (0x4E89)
Формат                                   : AC-3
Формат/Информация                        : Audio Coding 3
Идентификатор кодека                     : 6
Продолжительность                        : 1 ч. 50 м.
Вид битрейта                             : Постоянный
Битрейт                                  : 384 Кбит/сек
Каналы                                   : 6 каналов
Расположение каналов                     : Front: L C R, Side: L R, LFE
Частота                                  : 48,0 КГц
Частота кадров                           : 31,250 кадров/сек (1536 SPF)
Битовая глубина                          : 16 бит
Метод сжатия                             : С потерями
Задержка видео                           : -120 мс.
Размер потока                            : 304 Мбайт (3%)
Язык                                     : Russian
ServiceKind/String                       : Complete Main

Аудио #2
Идентификатор                            : 306 (0x132)
Идентификатор меню                       : 20105 (0x4E89)
Формат                                   : MPEG Audio
Версия формата                           : Version 1
Профиль формата                          : Layer 2
Идентификатор кодека                     : 3
Продолжительность                        : 1 ч. 50 м.
Вид битрейта                             : Постоянный
Битрейт                                  : 192 Кбит/сек
Каналы                                   : 2 канала
Частота                                  : 48,0 КГц
Частота кадров                           : 41,667 кадра/сек (1152 SPF)
Метод сжатия                             : С потерями
Задержка видео                           : -120 мс.
Размер потока                            : 152 Мбайт (2%)
Язык                                     : Russian

Скриншоты:



_________________
Проголосуй за трекер Открытый торрент трекер - RUS-MEDIA.ORG

Проголосуй Открытый торрент трекер - RUS-MEDIA.ORG


Вернуться к началу
 Профиль Отправить личное сообщение  
 
   Похожие торренты   Автор   Торрент   Размер 
В этой теме нет новых непрочитанных сообщений. Футбол. Чемпионат мира 2018. 1/2 финала. Франция - Бельгия [эфир от 10.07] (2018) HDTV 1080i

salma3

0 | 0

9.24 ГБ

В этой теме нет новых непрочитанных сообщений. Футбол. Чемпионат Мира 2018. 1/4 Финала. Уругвай — Франция (06.07.2018) HDTVRip [H.264/720p-LQ] [hand made 50fps]

salma3

0 | 0

3.59 ГБ

В этой теме нет новых непрочитанных сообщений. Чемпионат Мира 2018. 1/8 финала. Уругвай - Португалия (30.06.2018) HDTV [H.264/1080i]

salma3

0 | 0

9.51 ГБ

В этой теме нет новых непрочитанных сообщений. Футбол. Чемпионат мира 2018. Группа А. 3-й тур. Уругвай - Россия [эфир от 25.06] (2018) HDTV 1080i

salma3

0 | 0

8.72 ГБ

В этой теме нет новых непрочитанных сообщений. Футбол. Чемпионат Мира 2018. Отборочный турнир. Южная Америка. 13-й тур. Уругвай - Бразилия [24.03] (2017) HDTV 1080i

salma3

5 | 1

6.6 ГБ

В этой теме нет новых непрочитанных сообщений. Футбол. Чемпионат Мира 2018. Отборочный турнир. Южная Америка. 15-й тур. Уругвай - Аргентина [01.09] (2017) HDTV 1080i

salma3

39 | 16

6.07 ГБ

В этой теме нет новых непрочитанных сообщений. Футбол. Чемпионат мира 2018. Группа C. 2-й тур. Франция – Перу [эфир от 21.06] (2018) HDTV 1080i

salma3

0 | 0

9.21 ГБ


Начать новую тему Ответить на тему  [ 1 сообщение ] 




Для Мосгорсуда, Роскомнадзора и рекламодателей:: mosgorsud-torrent[собачка]yandex.ru
cron