COVID-19 - Последняя информация о коронавирусе на сайте Минздрава




Торрент файл
скачать торрент магнет ссылка Добавлен: 03 июл 2018, 11:04
Размер: 8.77 ГБ
Сидеров: 0
Личеров: 0
Автор

СообщениеДобавлено: 03 июл 2018, 11:04 

Не в сети
Супермодератор
Аватара пользователя
Дата регистрации:
15 фев 2012, 16:44
Возраст: 31
Спасибо: 8280 / 2148
Сообщения: 96711
Телекомпания: Матч ТВ HD
Жанр: Спорт. Футбол.

Описание:
02 июля 2018 года, понедельник. 17:00 МСК
Стадион: Самара Арена (Самара, Россия) , вместимость: 44918
Главный судья: Джанлука Рокки (Флоренция, Италия). Ассистенты: Эленито Ди Либераторе (Италия), Мауро Тонолини (Италия).

Релиз от: Striker

Продолжительность: 01:50:54
Качество видео: HDTV
Язык: Русский (Тимур Журавель, Роман Трушечкин) / Интершум
Субтитры: отсутствуют

Видео: AVC/H.264, 1920x1080, 25 fps, 10.4 Mbps
Аудио#1: MP2, 48 kHz, 2 ch, 192 kbps (русский)
Аудио#2: MP2, 48 kHz, 2 ch, 192 kbps (интершум)

Код:
General
ID                             : 1 (0x1)
Complete name                  : D:\53.Round.of.16.Brazil-Mexico.HDTV.1080i.ts
Format                         : MPEG-TS
File size                      : 8.77 GiB
Duration                       : 1 h 50 min
Overall bit rate mode          : Variable
Overall bit rate               : 11.3 Mb/s

Video
ID                             : 204 (0xCC)
Menu ID                        : 2204 (0x89C)
Format                         : AVC
Format/Info                    : Advanced Video Codec
Format profile                 : High@L4
Format settings                : CABAC / 4 Ref Frames
Format settings, CABAC         : Yes
Format settings, ReFrames      : 4 frames
Codec ID                       : 27
Duration                       : 1 h 50 min
Bit rate                       : 10.4 Mb/s
Width                          : 1 920 pixels
Height                         : 1 080 pixels
Display aspect ratio           : 16:9
Frame rate                     : 25.000 FPS
Standard                       : Component
Color space                    : YUV
Chroma subsampling             : 4:2:0
Bit depth                      : 8 bits
Scan type                      : Interlaced
Scan type, store method        : Separated fields
Scan order                     : Top Field First
Bits/(Pixel*Frame)             : 0.200
Stream size                    : 8.03 GiB (92%)
Color range                    : Limited
Color primaries                : BT.709
Transfer characteristics       : BT.709
Matrix coefficients            : BT.709

Audio #1
ID                             : 304 (0x130)
Menu ID                        : 2204 (0x89C)
Format                         : MPEG Audio
Format version                 : Version 1
Format profile                 : Layer 2
Codec ID                       : 3
Duration                       : 1 h 50 min
Bit rate mode                  : Constant
Bit rate                       : 192 kb/s
Channel(s)                     : 2 channels
Sampling rate                  : 48.0 kHz
Frame rate                     : 41.667 FPS (1152 SPF)
Compression mode               : Lossy
Delay relative to video        : -120 ms
Stream size                    : 152 MiB (2%)
Language                       : Russian

Audio #2
ID                             : 305 (0x131)
Menu ID                        : 2204 (0x89C)
Format                         : MPEG Audio
Format version                 : Version 1
Format profile                 : Layer 2
Codec ID                       : 3
Duration                       : 1 h 50 min
Bit rate mode                  : Constant
Bit rate                       : 192 kb/s
Channel(s)                     : 2 channels
Sampling rate                  : 48.0 kHz
Frame rate                     : 41.667 FPS (1152 SPF)
Compression mode               : Lossy
Delay relative to video        : -120 ms
Stream size                    : 152 MiB (2%)

Скриншоты:



_________________
Проголосуй за трекер Открытый торрент трекер - RUS-MEDIA.ORG

Проголосуй Открытый торрент трекер - RUS-MEDIA.ORG


Скачать книги и аудио книги через торрент


Вернуться к началу
 Профиль Отправить личное сообщение  
 
   Похожие торренты   Автор   Торрент   Размер 
В этой теме нет новых непрочитанных сообщений. Футбол. Чемпионат Мира 2018. 1/4 Финала. Бразилия — Бельгия (06.07.2018) HDTV [H.264/1080i-LQ]

salma3

0 | 0

9.03 ГБ

В этой теме нет новых непрочитанных сообщений. Футбол. Чемпионат Мира 2018. 1/8 Финала. Бразилия — Мексика (02.07.2018) HDTVRip [H.264/720p-LQ] [hand made 50fps]

salma3

0 | 0

3.45 ГБ

В этой теме нет новых непрочитанных сообщений. Футбол. Чемпионат мира 2018. 1/8 финала. Бразилия - Мексика [02.07] (2018) IPTVRip

salma3

0 | 0

2.47 ГБ

В этой теме нет новых непрочитанных сообщений. Чемпионат Мира 2018. 1/8 финала. Бельгия - Япония (02.07.2018) HDTV [H.264/1080i-LQ]

salma3

0 | 0

9.77 ГБ

В этой теме нет новых непрочитанных сообщений. Чемпионат Мира 2018. 1/8 Финала. Хорватия – Дания (01.07.2018) HDTV [H.264/1080i]

salma3

0 | 0

14.1 ГБ

В этой теме нет новых непрочитанных сообщений. Чемпионат Мира 2018. 1/8 финала. Швеция -Швейцария (03.07.2018) HDTV [H.264/1080i-LQ]

salma3

0 | 0

8.96 ГБ

В этой теме нет новых непрочитанных сообщений. Чемпионат Мира 2018. 1/8 финала. Колумбия - Англия (03.07.2018) HDTV [H.264/1080i-LQ]

salma3

0 | 0

13.03 ГБ


Начать новую тему Ответить на тему  [ 1 сообщение ] 




Для Мосгорсуда, Роскомнадзора и рекламодателей:: rstracker[собака]yandex.ru
cron