Торрент файл
скачать торрент магнет ссылка Добавлен: 03 июл 2018, 11:02
Размер: 9.77 ГБ
Сидеров: 0
Личеров: 0
Автор

СообщениеДобавлено: 03 июл 2018, 11:02 

Не в сети
Супермодератор
Аватара пользователя
Дата регистрации:
15 фев 2012, 16:44
Возраст: 29
Спасибо: 7331 / 2147
Сообщения: 73810
Телекомпания: Первый канал HD
Жанр: Спорт. Футбол.

Описание:
02 июля 2018 года, понедельник. 21:00 МСК
Ростов Арена (Ростов-на-Дону, Россия) , вместимость: 45000
Главный судья: Маланг Дьедиу (Сенегал). Ассистенты: Джибриль Камара (Сенегал), Эль-Хаджи Самба (Сенегал).

Релиз от: Arsenal15

Продолжительность: 01:49:30
Качество видео: HDTV
Язык: Русский (Павел Занозин, Евгений Савин)
Субтитры: отсутствуют

Видео: AVC/H.264, 1920x1080, 25 fps, ~11,6 Mbps
Аудио#1: AC3, 6 ch, 384 Kbps, Русский
Аудио#2: MP2, 2 ch, 192 Kbps, Русский
Код:
General
ID                          : 1 (0x1)
Complete name               : D:\Чемпионат Мира 2018  18 финала  Бельгия - Япония  Первый канал HD.ts
Format                      : MPEG-TS
File size                   : 9.77 GiB
Duration                    : 1 h 49 min
Overall bit rate mode       : Variable
Overall bit rate            : 12.8 Mb/s

Video
ID                          : 205 (0xCD)
Menu ID                     : 20105 (0x4E89)
Format                      : AVC
Format/Info                 : Advanced Video Codec
Format profile              : High@L4
Format settings, CABAC      : Yes
Format settings, ReFrames   : 4 frames
Format settings, GOP        : M=4, N=28
Codec ID                    : 27
Duration                    : 1 h 49 min
Bit rate                    : 11.6 Mb/s
Width                       : 1 920 pixels
Height                      : 1 080 pixels
Display aspect ratio        : 16:9
Frame rate                  : 25.000 FPS
Standard                    : Component
Color space                 : YUV
Chroma subsampling          : 4:2:0
Bit depth                   : 8 bits
Scan type                   : Interlaced
Scan type, store method     : Separated fields
Scan order                  : Top Field First
Bits/(Pixel*Frame)          : 0.223
Stream size                 : 8.85 GiB (91%)
Color range                 : Limited
Color primaries             : BT.709
Transfer characteristics    : BT.709
Matrix coefficients         : BT.709

Audio #1
ID                          : 305 (0x131)
Menu ID                     : 20105 (0x4E89)
Format                      : AC-3
Format/Info                 : Audio Coding 3
Mode extension              : CM (complete main)
Format settings, Endianness : Big
Codec ID                    : 6
Duration                    : 1 h 49 min
Bit rate mode               : Constant
Bit rate                    : 384 kb/s
Channel(s)                  : 6 channels
Channel positions           : Front: L C R, Side: L R, LFE
Sampling rate               : 48.0 kHz
Frame rate                  : 31.250 FPS (1536 spf)
Bit depth                   : 16 bits
Compression mode            : Lossy
Stream size                 : 301 MiB (3%)
Language                    : Russian

Audio #2
ID                          : 306 (0x132)
Menu ID                     : 20105 (0x4E89)
Format                      : MPEG Audio
Format version              : Version 1
Format profile              : Layer 2
Codec ID                    : 3
Duration                    : 1 h 49 min
Bit rate mode               : Constant
Bit rate                    : 192 kb/s
Channel(s)                  : 2 channels
Sampling rate               : 48.0 kHz
Compression mode            : Lossy
Stream size                 : 150 MiB (2%)
Language                    : Russian

Скриншоты:



_________________
Проголосуй за трекер Открытый торрент трекер - RUS-MEDIA.ORG

Проголосуй Открытый торрент трекер - RUS-MEDIA.ORG


Вернуться к началу
 Профиль Отправить личное сообщение  
 
   Похожие торренты   Автор   Торрент   Размер 
В этой теме нет новых непрочитанных сообщений. Футбол. Чемпионат Мира 2018. 1/4 Финала. Бразилия — Бельгия (06.07.2018) HDTV [H.264/1080i-LQ]

salma3

0 | 0

9.03 ГБ

В этой теме нет новых непрочитанных сообщений. Футбол. Чемпионат мира 2018. 1/2 финала. Франция - Бельгия [эфир от 10.07] (2018) HDTV 1080i

salma3

0 | 0

9.24 ГБ

В этой теме нет новых непрочитанных сообщений. Футбол. Чемпионат мира 2018. 1/8 финала. Бельгия - Япония [02.07] (2018) IPTVRip

salma3

0 | 0

3.12 ГБ

В этой теме нет новых непрочитанных сообщений. Футбол. Чемпионат Мира 2018. 1/8 Финала. Бельгия — Япония (02.07.2018) HDTVRip [H.264/720p-LQ] [hand made 50fps]

salma3

0 | 0

3.39 ГБ

В этой теме нет новых непрочитанных сообщений. Футбол. Чемпионат Мира 2018. 1/8 Финала. Бельгия — Япония (02.07.2018) HDTVRip [H.264/720p-LQ] [hand made 50fps]

salma3

0 | 0

3.37 ГБ

В этой теме нет новых непрочитанных сообщений. Футбол. Чемпионат мира 2018. Группа Н. 2-й тур. Япония - Сенегал [эфир от 24.06] (2018) HDTV 1080i

salma3

0 | 0

9.36 ГБ

В этой теме нет новых непрочитанных сообщений. Футбол. Чемпионат мира 2018. Матч за 3-е место. Бельгия - Англия [эфир от 14.07] (2018) HDTV 1080i

salma3

0 | 0

9.09 ГБ


Начать новую тему Ответить на тему  [ 1 сообщение ] 




Для Мосгорсуда, Роскомнадзора и рекламодателей:: mosgorsud-torrent[собачка]yandex.ru
cron