COVID-19 - Последняя информация о коронавирусе на сайте Минздрава




Торрент файл
скачать торрент магнет ссылка Добавлен: 02 июл 2018, 08:48
Размер: 14.93 ГБ
Сидеров: 0
Личеров: 0
Автор

СообщениеДобавлено: 02 июл 2018, 08:48 

Не в сети
Супермодератор
Аватара пользователя
Дата регистрации:
15 фев 2012, 16:44
Возраст: 31
Спасибо: 8280 / 2148
Сообщения: 96711
Телекомпания: Россия 1 HD
Жанр: Спорт

Описание:
Стадион: Лужники (Москва, Россия) , вместимость: 84745
Главный судья: Бьорн Куйперс (Нидерланды) Ассистенты: Сандер ван Рукел (Нидерланды) , Эрвин Зейнстра (Нидерланды)

Релиз от: Striker

Продолжительность: 02:38:33
Качество видео: HDTV
Язык: Русский (Владимир Стогниенко)
Субтитры: отсутствуют

Видео: 1920x1080i, H.264, 25 fps, ~12.6 Mbps
Аудио: MP2, 48 kHz, 2 ch, 192 Kbps

В конце матча отсутствуют 5 минут трансляции, пропал сигнал со спутника
Код:
General
ID                             : 1 (0x1)
Complete name                  : D:\World.Cup.2018.Round.of.16.Spain-Russia.HDTV.1080i.Rossia1.ts
Format                         : MPEG-TS
File size                      : 14.9 GiB
Duration                       : 2 h 38 min
Overall bit rate mode          : Variable
Overall bit rate               : 13.5 Mb/s

Video
ID                             : 206 (0xCE)
Menu ID                        : 20106 (0x4E8A)
Format                         : AVC
Format/Info                    : Advanced Video Codec
Format profile                 : High@L4
Format settings                : CABAC / 4 Ref Frames
Format settings, CABAC         : Yes
Format settings, ReFrames      : 4 frames
Format settings, GOP           : M=4, N=28
Codec ID                       : 27
Duration                       : 2 h 38 min
Bit rate                       : 12.6 Mb/s
Width                          : 1 920 pixels
Height                         : 1 080 pixels
Display aspect ratio           : 16:9
Frame rate                     : 25.000 FPS
Standard                       : Component
Color space                    : YUV
Chroma subsampling             : 4:2:0
Bit depth                      : 8 bits
Scan type                      : Interlaced
Scan type, store method        : Separated fields
Scan order                     : Top Field First
Bits/(Pixel*Frame)             : 0.244
Stream size                    : 14.0 GiB (94%)
Color range                    : Limited
Color primaries                : BT.709
Transfer characteristics       : BT.709
Matrix coefficients            : BT.709

Audio
ID                             : 306 (0x132)
Menu ID                        : 20106 (0x4E8A)
Format                         : MPEG Audio
Format version                 : Version 1
Format profile                 : Layer 2
Codec ID                       : 3
Duration                       : 2 h 38 min
Bit rate mode                  : Constant
Bit rate                       : 192 kb/s
Channel(s)                     : 2 channels
Sampling rate                  : 48.0 kHz
Frame rate                     : 41.667 FPS (1152 SPF)
Compression mode               : Lossy
Delay relative to video        : -40 ms
Stream size                    : 218 MiB (1%)
Language                       : Russian

Скриншоты:



_________________
Проголосуй за трекер Открытый торрент трекер - RUS-MEDIA.ORG

Проголосуй Открытый торрент трекер - RUS-MEDIA.ORG


Скачать книги и аудио книги через торрент


Вернуться к началу
 Профиль Отправить личное сообщение  
 
   Похожие торренты   Автор   Торрент   Размер 
В этой теме нет новых непрочитанных сообщений. Футбол. Чемпионат Мира 2018. 1/4 Финала. Россия — Хорватия (07.07.2018) HDTV [H.264/1080i-LQ]

salma3

0 | 0

14.8 ГБ

В этой теме нет новых непрочитанных сообщений. Чемпионат Мира 2018. 1/8 Финала. Испания – Россия (01.07.2018) HDTVRip [H.264/720p-LQ] [hand made 50fps]

salma3

0 | 0

4.8 ГБ

В этой теме нет новых непрочитанных сообщений. Футбол. Чемпионат Мира 2018. 1/8 Финала. Испания – Россия (01.07.2018) HDTVRip [H.264/720p-LQ] [hand made 50fps]

salma3

0 | 0

5.09 ГБ

В этой теме нет новых непрочитанных сообщений. Чемпионат Мира 2018. 1/8 Финала. Хорватия – Дания (01.07.2018) HDTV [H.264/1080i]

salma3

0 | 0

14.1 ГБ

В этой теме нет новых непрочитанных сообщений. Чемпионат Мира 2018. 1/8 финала. Колумбия - Англия (03.07.2018) HDTV [H.264/1080i-LQ]

salma3

0 | 0

13.03 ГБ

В этой теме нет новых непрочитанных сообщений. Чемпионат Мира 2018. 1/8 финала. Швеция -Швейцария (03.07.2018) HDTV [H.264/1080i-LQ]

salma3

0 | 0

8.96 ГБ

В этой теме нет новых непрочитанных сообщений. Чемпионат Мира 2018. 1/8 финала. Бразилия - Мексика (02.07.2018) HDTV [H.264/1080i-LQ]

salma3

0 | 0

8.77 ГБ


Начать новую тему Ответить на тему  [ 1 сообщение ] 




Для Мосгорсуда, Роскомнадзора и рекламодателей:: rstracker[собака]yandex.ru
cron