COVID-19 - Последняя информация о коронавирусе на сайте Минздрава




Торрент файл
скачать торрент магнет ссылка Добавлен: 01 июл 2018, 11:46
Размер: 9.51 ГБ
Сидеров: 0
Личеров: 0
Автор

СообщениеДобавлено: 01 июл 2018, 11:46 

Не в сети
Супермодератор
Аватара пользователя
Дата регистрации:
15 фев 2012, 16:44
Возраст: 31
Спасибо: 8280 / 2148
Сообщения: 96711
Телекомпания: Первый канал HD
Жанр: Спорт

Описание:
30 июня 2018 года, суббота. 21:00 МСК
Стадион: Фишт (Сочи, Россия) , вместимость: 47659
Главный судья: Сесар Рамос Паласуэлос (Мексика). Ассистенты: Марвин Торрентера (Мексика), Мигель Анхель Эрнандес Паредес (Мексика)

Релиз от: Striker

Продолжительность: 01:53:55
Качество видео: HDTV
Язык: Русский (Кирилл Дементьев, Евгений Савин)
Субтитры: отключаемые

Видео: 1920x1080i, H.264, 25 fps, ~10,8 Mbps
Аудио#1: AC3, 6 ch, 48 kHz, ~384.00 Kbps
Аудио#2: MP2, 2 ch, 48 kHz, ~192.00 Kbps

Код:
General
ID                             : 1 (0x1)
Complete name                  : D:\World.Cup.2018.Round.of.16.Uruguay-Portugal.HDTV.1080i.Perviy.ts
Format                         : MPEG-TS
File size                      : 9.51 GiB
Duration                       : 1 h 53 min
Overall bit rate mode          : Variable
Overall bit rate               : 11.9 Mb/s

Video
ID                             : 205 (0xCD)
Menu ID                        : 20105 (0x4E89)
Format                         : AVC
Format/Info                    : Advanced Video Codec
Format profile                 : High@L4
Format settings                : CABAC / 4 Ref Frames
Format settings, CABAC         : Yes
Format settings, ReFrames      : 4 frames
Codec ID                       : 27
Duration                       : 1 h 53 min
Bit rate                       : 10.8 Mb/s
Width                          : 1 920 pixels
Height                         : 1 080 pixels
Display aspect ratio           : 16:9
Frame rate                     : 25.000 FPS
Standard                       : Component
Color space                    : YUV
Chroma subsampling             : 4:2:0
Bit depth                      : 8 bits
Scan type                      : Interlaced
Scan type, store method        : Separated fields
Scan order                     : Top Field First
Bits/(Pixel*Frame)             : 0.208
Stream size                    : 8.57 GiB (90%)
Color range                    : Limited
Color primaries                : BT.709
Transfer characteristics       : BT.709
Matrix coefficients            : BT.709

Audio #1
ID                             : 305 (0x131)
Menu ID                        : 20105 (0x4E89)
Format                         : AC-3
Format/Info                    : Audio Coding 3
Codec ID                       : 6
Duration                       : 1 h 53 min
Bit rate mode                  : Constant
Bit rate                       : 384 kb/s
Channel(s)                     : 6 channels
Channel positions              : Front: L C R, Side: L R, LFE
Sampling rate                  : 48.0 kHz
Frame rate                     : 31.250 FPS (1536 SPF)
Bit depth                      : 16 bits
Compression mode               : Lossy
Delay relative to video        : -80 ms
Stream size                    : 313 MiB (3%)
Language                       : Russian
Service kind                   : Complete Main

Audio #2
ID                             : 306 (0x132)
Menu ID                        : 20105 (0x4E89)
Format                         : MPEG Audio
Format version                 : Version 1
Format profile                 : Layer 2
Codec ID                       : 3
Duration                       : 1 h 53 min
Bit rate mode                  : Constant
Bit rate                       : 192 kb/s
Channel(s)                     : 2 channels
Sampling rate                  : 48.0 kHz
Frame rate                     : 41.667 FPS (1152 SPF)
Compression mode               : Lossy
Delay relative to video        : -80 ms
Stream size                    : 156 MiB (2%)
Language                       : Russian

Text
ID                             : 307 (0x133)-888
Menu ID                        : 20105 (0x4E89)
Format                         : Teletext Subtitle
Language                       : Russian
Language, more info            : For hearing impaired people

Other
ID                             : 307 (0x133)-100
Menu ID                        : 20105 (0x4E89)
Format                         : Teletext
Language                       : Russian

Скриншоты:



Все одноименные релизы в Клубе


_________________
Проголосуй за трекер Открытый торрент трекер - RUS-MEDIA.ORG

Проголосуй Открытый торрент трекер - RUS-MEDIA.ORG


Скачать книги и аудио книги через торрент


Вернуться к началу
 Профиль Отправить личное сообщение  
 
   Похожие торренты   Автор   Торрент   Размер 
В этой теме нет новых непрочитанных сообщений. Футбол. Чемпионат Мира 2018. 1/4 Финала. Уругвай — Франция (06.07.2018) HDTV [H.264/1080i-LQ]

salma3

0 | 0

9.68 ГБ

В этой теме нет новых непрочитанных сообщений. Футбол. Чемпионат мира 2018. 1/8 финала. Уругвай - Португалия [эфир от 30.06] (2018) HDTVRip 720p

salma3

0 | 0

3.69 ГБ

В этой теме нет новых непрочитанных сообщений. Чемпионат Мира 2018. 1/8 Финала. Хорватия – Дания (01.07.2018) HDTV [H.264/1080i]

salma3

0 | 0

14.1 ГБ

В этой теме нет новых непрочитанных сообщений. Чемпионат Мира 2018. 1/8 финала. Бразилия - Мексика (02.07.2018) HDTV [H.264/1080i-LQ]

salma3

0 | 0

8.77 ГБ

В этой теме нет новых непрочитанных сообщений. Чемпионат Мира 2018. 1/8 финала. Испания - Россия (01.07.2018) HDTV [H.264/1080i]

salma3

0 | 0

14.93 ГБ

В этой теме нет новых непрочитанных сообщений. Чемпионат Мира 2018. 1/8 финала. Швеция -Швейцария (03.07.2018) HDTV [H.264/1080i-LQ]

salma3

0 | 0

8.96 ГБ

В этой теме нет новых непрочитанных сообщений. Чемпионат Мира 2018. 1/8 финала. Бельгия - Япония (02.07.2018) HDTV [H.264/1080i-LQ]

salma3

0 | 0

9.77 ГБ


Начать новую тему Ответить на тему  [ 1 сообщение ] 




Для Мосгорсуда, Роскомнадзора и рекламодателей:: rstracker[собака]yandex.ru
cron