Торрент файл
скачать торрент магнет ссылка Добавлен: 15 май 2018, 11:32
Размер: 3.49 ГБ
Сидеров: 0
Личеров: 0
Автор

СообщениеДобавлено: 15 май 2018, 11:32 

Не в сети
Супермодератор
Аватара пользователя
Дата регистрации:
15 фев 2012, 16:44
Возраст: 28
Спасибо: 7224 / 2147
Сообщения: 68058
Хоккей. Чемпионат мира 2018. Группа B. Норвегия – США (13.05.2018) HDTVRip [H.264/720p-LQ]

«2018 IIHF World Championship»
Телекомпания: Матч! Игра HD
Жанр: Спорт

Комментаторы: Александр Ткачёв, Александр Хаванов

Описание: 13 мая 2018 года, воскресенье. 17:15 МСК
82-й Чемпионат мира по хоккею с шайбой 2018 года
Группа B. 6-й Тур
Норвегия – США
Стадион: Йюске Банк Боксен (Хернинг, Дания), 4553 зрителя (41 % при вместимости 11000)
Главные судьи: Роман Гофман (Россия), Тобиас Верли (Швейцария)
Линейные судьи: Мирослав Лготский (Чехия), Сакари Суоминен (Финляндия)

Релиз от: toshap

Продолжительность: 01:51:11
Качество видео: HDTVRip
Язык озвучки: Русский
Субтитры: отсутствуют

Видео: AVC/H.264, 1280x720 (16:9), ~3955 Kbps, 50 fps
Аудио: AC3, 2 ch, 48 kHz, 448 Kbps
Код:
Общее
Уникальный идентификатор                 : 178556457478098019796225732349861171033 (0x8654B90ADE1FC255E98EE161629A0F59)
Полное имя                               : F:\SPORT\Хоккей\2018 IIHF Ice Hockey World Championship\(13.05.2018)_IIHF WCh 2018.PR6.Gr B. NOR - USA.mkv
Формат                                   : Matroska
Версия формата                           : Version 4 / Version 2
Размер файла                             : 3,49 Гбайт
Продолжительность                        : 1 ч. 51 м.
Общий поток                              : 4492 Кбит/сек
Программа кодирования                    : Lavf58.10.100
Библиотека кодирования                   : Lavf58.10.100
ErrorDetectionType                       : Per level 1

Видео
Идентификатор                            : 1
Формат                                   : AVC
Формат/Информация                        : Advanced Video Codec
Профиль формата                          :
Настройки формата                        : CABAC / 4 Ref Frames
Параметр CABAC формата                   : Да
Параметр RefFrames формата               : 4 кадра
Идентификатор кодека                     : V_MPEG4/ISO/AVC
Продолжительность                        : 1 ч. 51 м.
Битрейт                                  : 3955 Кбит/сек
Ширина                                   : 1280 пикселей
Высота                                   : 720 пикселей
Соотношение сторон                       : 16:9
Режим частоты кадров                     : Постоянный
Частота кадров                           : 50,000 кадров/сек
Цветовое пространство                    : YUV
Субдискретизация насыщенности            : 4:2:0
Битовая глубина                          : 8 бит
Тип развёртки                            : Прогрессивная
Бит/(Пиксели*Кадры)                      : 0.086
Размер потока                            : 3,07 Гбайт (88%)
Библиотека кодирования                   : x264 core 155 r2901 7d0ff22
Настройки программы                      : cabac=1 / ref=3 / deblock=1:0:0 / analyse=0x3:0x113 / me=hex / subme=7 / psy=1 / psy_rd=1.00:0.00 / mixed_ref=1 / me_range=16 / chroma_me=1 / trellis=1 / 8x8dct=1 / cqm=0 / deadzone=21,11 / fast_pskip=1 / chroma_qp_offset=-2 / threads=12 / lookahead_threads=2 / sliced_threads=0 / nr=0 / decimate=1 / interlaced=0 / bluray_compat=0 / constrained_intra=0 / bframes=3 / b_pyramid=2 / b_adapt=1 / b_bias=0 / direct=1 / weightb=1 / open_gop=0 / weightp=2 / keyint=250 / keyint_min=25 / scenecut=40 / intra_refresh=0 / rc_lookahead=40 / rc=crf / mbtree=1 / crf=21.5 / qcomp=0.60 / qpmin=0 / qpmax=69 / qpstep=4 / ip_ratio=1.40 / aq=1:1.00
Default                                  : Да
Forced                                   : Нет

Аудио
Идентификатор                            : 2
Формат                                   : AC-3
Формат/Информация                        : Audio Coding 3
Идентификатор кодека                     : A_AC3
Продолжительность                        : 1 ч. 51 м.
Вид битрейта                             : Постоянный
Битрейт                                  : 448 Кбит/сек
Каналы                                   : 2 канала
Расположение каналов                     : Front: L R
Частота                                  : 48,0 КГц
Частота кадров                           : 31,250 кадров/сек (1536 SPF)
Битовая глубина                          : 16 бит
Метод сжатия                             : С потерями
Задержка видео                           : -4 мс.
Размер потока                            : 356 Мбайт (10%)
Язык                                     : Russian
ServiceKind/String                       : Complete Main
Default                                  : Да
Forced                                   : Нет

Скриншоты:



_________________
Проголосуй за трекер Открытый торрент трекер - RUS-MEDIA.ORG

Проголосуй Открытый торрент трекер - RUS-MEDIA.ORG


Вернуться к началу
 Профиль Отправить личное сообщение  
 
   Похожие торренты   Автор   Торрент   Размер 
В этой теме нет новых непрочитанных сообщений. Чемпионат Мира 2018. 1/8 Финала. Испания – Россия (01.07.2018) HDTVRip [H.264/720p-LQ] [hand made 50fps]

salma3

0 | 0

4.8 ГБ

В этой теме нет новых непрочитанных сообщений. Чемпионат Мира 2018. 1/8 Финала. Франция – Аргентина (30.06.2018) HDTVRip [H.264/720p-LQ] [hand made 50fps]

salma3

0 | 0

3.35 ГБ

В этой теме нет новых непрочитанных сообщений. Футбол. Чемпионат Мира 2018. 1/8 Финала. Хорватия – Дания (01.07.2018) HDTVRip [H.264/720p-LQ] [hand made 50fps]

salma3

0 | 0

4.9 ГБ

В этой теме нет новых непрочитанных сообщений. Футбол. Чемпионат Мира 2018. 1/8 Финала. Испания – Россия (01.07.2018) HDTVRip [H.264/720p-LQ] [hand made 50fps]

salma3

0 | 0

5.09 ГБ

В этой теме нет новых непрочитанных сообщений. Футбол. Чемпионат Мира 2018. 1/8 Финала. Бразилия — Мексика (02.07.2018) HDTVRip [H.264/720p-LQ] [hand made 50fps]

salma3

0 | 0

3.45 ГБ

В этой теме нет новых непрочитанных сообщений. Футбол. Чемпионат Мира 2018. 1/4 Финала. Уругвай — Франция (06.07.2018) HDTVRip [H.264/720p-LQ] [hand made 50fps]

salma3

0 | 0

3.59 ГБ

В этой теме нет новых непрочитанных сообщений. Футбол. Чемпионат Мира 2018. 1/4 Финала. Швеция — Англия (07.07.2018) HDTVRip [H.264/720p-LQ] [hand made 50fps]

salma3

11 | 10

3.39 ГБ


Начать новую тему Ответить на тему  [ 1 сообщение ] 




Для Мосгорсуда, Роскомнадзора и рекламодателей:: mosgorsud-torrent[собачка]yandex.ru
cron