Торрент файл
скачать торрент магнет ссылка Добавлен: 18 окт 2017, 21:35
Размер: 109.01 МБ
Сидеров: 13
Личеров: 4
Автор

СообщениеДобавлено: 18 окт 2017, 21:35 

Не в сети
Супермодератор
Аватара пользователя
Дата регистрации:
15 фев 2012, 16:44
Возраст: 28
Спасибо: 6644 / 2146
Сообщения: 45958
Имя актрисы: Valentina Nappi[/center]
Название ролика: Valentina Nappi's cravings
Дата выхода: 13/09/2017
Сайт: Lasublimexxx.com
Год производства: 2017 г.
Жанр: Boobs Job, Brunettes, Busty, Erotic, Italian, Masturbation, Natural Tits, Sex Toys
Продолжительность: 00:13:30
Описание: Beautiful Valentina Nappi never lets you down. Under the summer lights with her huge rubber cock she unleashes all her senses shamelessly. Valentina will drive you crazy as she touches herself watching you straight in your eyes… Mind blowing!
Формат видео: MP4
Видео: MPEG4 Video (H264) 720x400 (16:9) 30fps 993kbps
Аудио: AAC 44100Hz stereo 127kbps
Тех. данные
D:\nappi\LaSublimeXXX.17.09.13.Valentina.Nappi.Cravings.XXX.SD.MP4\[Lasublimexxx.com].17.09.13.Valentina.Nappi.Cravings.400SD.mp4
General
Complete name : D:\nappi\LaSublimeXXX.17.09.13.Valentina.Nappi.Cravings.XXX.SD.MP4\[Lasublimexxx.com].17.09.13.Valentina.Nappi.Cravings.400SD.mp4
Format : MPEG-4
Format profile : Base Media
Codec ID : isom (isom/iso2/avc1/mp41)
File size : 109 MiB
Duration : 13 min 29 s
Overall bit rate mode : Variable
Overall bit rate : 1 129 kb/s
Movie name : LaSublimeXXX.17.09.13.Valentina.Nappi.Cravings.XXX.SD.MP4
Encoded date : UTC 2017-09-24 06:35:17
Tagged date : UTC 2017-09-24 06:35:17
Writing application : Lavf57.71.100
Comment : LaSublimeXXX.17.09.13.Valentina.Nappi.Cravings.XXX.SD.MP4
Video #1
ID : 1
Format : AVC
Format/Info : Advanced Video Codec
Format profile : High@L3
Format settings, CABAC : Yes
Format settings, ReFrames : 5 frames
Codec ID : avc1
Codec ID/Info : Advanced Video Coding
Duration : 13 min 29 s
Bit rate : 1 000 kb/s
Width : 720 pixels
Height : 400 pixels
Display aspect ratio : 16:9
Frame rate mode : Constant
Frame rate : 30.000 FPS
Color space : YUV
Chroma subsampling : 4:2:0
Bit depth : 8 bits
Scan type : Progressive
Bits/(Pixel*Frame) : 0.116
Stream size : 95.9 MiB (88%)
Title : RARBG - LaSublimeXXX.17.09.13.Valentina.Nappi.Cravings.XXX.SD.MP4-KLEENEX
Writing library : x264 core 152 r2851M ba24899
Encoding settings : cabac=1 / ref=5 / deblock=1:0:0 / analyse=0x3:0x113 / me=hex / subme=8 / psy=1 / psy_rd=1.00:0.00 / mixed_ref=1 / me_range=16 / chroma_me=1 / trellis=2 / 8x8dct=1 / cqm=0 / deadzone=21,11 / fast_pskip=1 / chroma_qp_offset=-2 / threads=12 / lookahead_threads=2 / sliced_threads=0 / nr=0 / decimate=1 / interlaced=0 / bluray_compat=0 / constrained_intra=0 / bframes=3 / b_pyramid=2 / b_adapt=1 / b_bias=0 / direct=3 / weightb=1 / open_gop=0 / weightp=2 / keyint=250 / keyint_min=25 / scenecut=40 / intra_refresh=0 / rc_lookahead=50 / rc=abr / mbtree=1 / bitrate=1000 / ratetol=1.0 / qcomp=0.60 / qpmin=0 / qpmax=69 / qpstep=4 / ip_ratio=1.40 / aq=1:1.00
Encoded date : UTC 2017-09-24 06:35:17
Tagged date : UTC 2017-09-24 06:35:17
Audio #2
ID : 2
Format : AAC
Format/Info : Advanced Audio Codec
Format profile : LC
Codec ID : 40
Duration : 13 min 29 s
Bit rate mode : Variable
Bit rate : 128 kb/s
Channel(s) : 2 channels
Channel positions : Front: L R
Sampling rate : 44.1 kHz
Frame rate : 43.066 FPS (1024 spf)
Compression mode : Lossy
Stream size : 12.3 MiB (11%)
Title : RARBG - LaSublimeXXX.17.09.13.Valentina.Nappi.Cravings.XXX.SD.MP4-KLEENEX
Default : Yes
Alternate group : 1
Encoded date : UTC 2017-09-24 06:35:17
Tagged date : UTC 2017-09-24 06:35:17
Скриншоты


_________________
Проголосуй за трекер Открытый торрент трекер - RUS-MEDIA.ORG

Проголосуй Открытый торрент трекер - RUS-MEDIA.ORG



реклама партнёра


Вернуться к началу
 Профиль Отправить личное сообщение  
 
   Похожие торренты   Автор   Торрент   Размер 
В этой теме нет новых непрочитанных сообщений. [lasublimexxx.com] Valentina Nappi (Valentina Nappi's cravings / 13/09/2017) [2017 г., Boobs Job, Brunettes, Busty, Erotic, Italian, Masturbation, Natural Tits, Sex Toys, 1080p]

salma3

15 | 5

804.86 МБ

В этой теме нет новых непрочитанных сообщений. [LaSublimeXXX.com] Dana Santo Valentina Nappi (A wet picnic) [2017 г., Anal Big Cock Blowjobs Brunettes Busty Cunnilingus Handjobs Italian Lesbian Natural Tits, 1080p]

salma3

37 | 12

1.88 ГБ

В этой теме нет новых непрочитанных сообщений. [Spizoo.com] Valentina Nappi (Valentina Nappi Tease You / 05.09.2017) [2017 г., Big Ass,Brunette,Bubble Butt,Busty,Dildo,Euro,Feet,Fingering,Fishnet,Hairy Pussy,High Heels,Lingerie,Masturbation,Natural Tits,Pornstar,Toys, 1080p]

salma3

20 | 6

628.38 МБ

В этой теме нет новых непрочитанных сообщений. The Sexual Desires Of Valentina Nappi / Сексуальные Желания Valentina Nappi (New Sensations) [2017 г., Big Boobs, Brunettes, Compilation, Star showcase, DVDRip]

salma3

6 | 2

1.72 ГБ

В этой теме нет новых непрочитанных сообщений. [Pornstartease.com / Spizoo.com] Valentina Nappi - Italian Queen [25.07.2017 г., Big tits, solo, masturbation, trimmed pussy, toys, lingerie, 1080p]

salma3

6 | 2

638.95 МБ

В этой теме нет новых непрочитанных сообщений. VALENTINA NAPPI (95) ТОРРЕНТ ОБНОВЛЕН 01.11.2013 (Naomi, Valentina, Valentina B, Valentina Noon) Pack / ШИКАРНАЯ, РАЗВРАТНАЯ И НЕНАСЫТНАЯ VALENTINA NAPPI!!! [Gonzo, Anal, DP, Gang Bang, Blowjob, Fetish, Lesbian, POV]

salma3

18 | 6

41.37 ГБ

В этой теме нет новых непрочитанных сообщений. [JulesJordan.com] Valentina Nappi (Valentina Nappi Has Her Throat & ASS Cleared By Mandingo's BBC / 29.07.17) [2017 г., All Sex, Anal, IR, 558p]

salma3

38 | 13

501.13 МБ


Начать новую тему Ответить на тему  [ 1 сообщение ] 




Для Мосгорсуда, Роскомнадзора и рекламодателей:: mosgorsud-torrent[собачка]yandex.ru