Торрент файл
скачать торрент магнет ссылка Добавлен: 09 сен 2017, 11:52
Размер: 178.44 МБ
Сидеров: 6
Личеров: 2
Автор

СообщениеДобавлено: 09 сен 2017, 11:52 

Не в сети
Супермодератор
Аватара пользователя
Дата регистрации:
15 фев 2012, 16:44
Возраст: 28
Спасибо: 7207 / 2147
Сообщения: 65665
Paris

Год производства: 1997 г.
Страна: USA
Жанр: blonde, big tits, anal, DP
Продолжительность: 00:27:24

Описание: Большегрудую шлюху трахнули, показывая ей способ брожения винограда, в обе дырки сразу.

Качество видео: DVDRip
Формат видео: AVI
Видео: MPEG4, XviD, 576x432 (4:3), 23.976 fps, 801 Kbps (0.134 bit/pixel)
Аудио: MP3, 48.0 KHz, 2 ch, 96.0 Kbps, VBR
MediaInfo
General
Complete name : C:\Users\User\Downloads\AvsP\help\Paris (Perverted Stories 14).avi
Format : AVI
Format/Info : Audio Video Interleave
File size : 178 MiB
Duration : 27mn 23s
Overall bit rate mode : Variable
Overall bit rate : 911 Kbps

Video
ID : 0
Format : MPEG-4 Visual
Format profile : Advanced Simple@L5
Format settings, BVOP : 2
Format settings, QPel : No
Format settings, GMC : No warppoints
Format settings, Matrix : Default (H.263)
Codec ID : XVID
Codec ID/Hint : XviD
Duration : 27mn 23s
Bit rate : 801 Kbps
Width : 576 pixels
Height : 432 pixels
Display aspect ratio : 4:3
Frame rate : 23.976 fps
Color space : YUV
Chroma subsampling : 4:2:0
Bit depth : 8 bits
Scan type : Interlaced
Scan order : Top Field First
Compression mode : Lossy
Bits/(Pixel*Frame) : 0.134
Stream size : 157 MiB (88%)
Writing library : XviD 64

Audio
ID : 1
Format : MPEG Audio
Format version : Version 1
Format profile : Layer 3
Mode : Joint stereo
Mode extension : Intensity Stereo + MS Stereo
Codec ID : 55
Codec ID/Hint : MP3
Duration : 27mn 23s
Bit rate mode : Variable
Bit rate : 96.0 Kbps
Channel(s) : 2 channels
Sampling rate : 48.0 KHz
Compression mode : Lossy
Stream size : 18.8 MiB (11%)
Alignment : Aligned on interleaves
Interleave, duration : 24 ms (0.58 video frame)
Скриншоты


_________________
Проголосуй за трекер Открытый торрент трекер - RUS-MEDIA.ORG

Проголосуй Открытый торрент трекер - RUS-MEDIA.ORG


Вернуться к началу
 Профиль Отправить личное сообщение  
 
   Похожие торренты   Автор   Торрент   Размер 
В этой теме нет новых непрочитанных сообщений. Christgen Wolf (Perverted Stories 20) [1998 г., milf, big tits, anal, DVDRip]

salma3

7 | 2

216.96 МБ

В этой теме нет новых непрочитанных сообщений. Alexandra Nice (Perverted Stories 20) [1998 г., milf, oral, anal, DVDRip]

salma3

13 | 4

325.88 МБ

В этой теме нет новых непрочитанных сообщений. [Legalporno.com] Amanda Paris - Blonde hottie Amanda Paris 3on1 anal & DP SZ886 [2015 г., Gonzo, IR, Gangbang, Anal, DP, 480p]

salma3

8 | 3

968.68 МБ

В этой теме нет новых непрочитанных сообщений. Heather Pink (сцена из Perverted Planet 5) [2009 г., All Sex, Anal, Creampie, Big Tits, Feet,, DVDRip]

salma3

5 | 2

215.42 МБ

В этой теме нет новых непрочитанных сообщений. [Legalporno.com] Blanche Bradburry & Amanda Paris - Blonde sluts Blanche Bradburry & Amanda Paris fuck two cocks & get DP'ed (Ananda Paris first DP) SZ757 [2015 г., Gonzo, 2 On 2, Anal, DP, 480p]

salma3

0 | 0

873.96 МБ

В этой теме нет новых непрочитанных сообщений. Streets Of Paris / Exhibition A Paris / Exhibition à Paris / Улицы Парижа (Patrice Cabanel, Wild Video) [1996 г., Feature, Anal, DVDRip] Zabou, Liza Harper, Coralie, Elodie Cherie, Magella

salma3

32 | 12

1.14 ГБ

В этой теме нет новых непрочитанных сообщений. Проповедь для извращенных / Preaching to the Perverted [драма, комедия, 1997] BDRip, Avo

salma3

998 | 185

1.46 ГБ


Начать новую тему Ответить на тему  [ 1 сообщение ] 




Для Мосгорсуда, Роскомнадзора и рекламодателей:: mosgorsud-torrent[собачка]yandex.ru
cron