Торрент файл
скачать торрент магнет ссылка Добавлен: 27 июн 2017, 13:00
Размер: 2.55 ГБ
Сидеров: 0
Личеров: 0
Автор

СообщениеДобавлено: 27 июн 2017, 13:00 

Не в сети
Супермодератор
Аватара пользователя
Дата регистрации:
15 фев 2012, 16:44
Возраст: 28
Спасибо: 7290 / 2147
Сообщения: 70618

Год производства: 2017
Жанр: All Sex
В ролях: Alice Coxxx
Продолжительность:30mn 2s

Тип видео : HD
Формат видео : MP4
Video
ID : 1
Format : AVC
Format/Info : Advanced Video Codec
Format profile : Main@L4
Format settings, CABAC : Yes
Format settings, ReFrames : 4 frames
Codec ID : avc1
Codec ID/Info : Advanced Video Coding
Duration : 30mn 2s
Bit rate : 12.0 Mbps
Width : 1 920 pixels
Height : 1 080 pixels
Display aspect ratio : 16:9
Frame rate mode : Constant
Frame rate : 29.970 (30000/1001) fps
Color space : YUV
Chroma subsampling : 4:2:0
Bit depth : 8 bits
Scan type : Progressive
Bits/(Pixel*Frame) : 0.193
Stream size : 2.52 GiB (99%)
Writing library : x264 core 142 r2479 dd79a61
Encoding settings : cabac=1 / ref=2 / deblock=1:0:0 / analyse=0x1:0x111 / me=hex / subme=6 / psy=1 / psy_rd=1.00:0.00 / mixed_ref=1 / me_range=16 / chroma_me=1 / trellis=1 / 8x8dct=0 / cqm=0 / deadzone=21,11 / fast_pskip=1 / chroma_qp_offset=-2 / threads=18 / lookahead_threads=3 / sliced_threads=0 / nr=0 / decimate=1 / interlaced=0 / bluray_compat=0 / constrained_intra=0 / bframes=3 / b_pyramid=2 / b_adapt=1 / b_bias=0 / direct=1 / weightb=1 / open_gop=0 / weightp=1 / keyint=300 / keyint_min=30 / scenecut=40 / intra_refresh=0 / rc_lookahead=30 / rc=2pass / mbtree=1 / bitrate=12000 / ratetol=1.0 / qcomp=0.60 / qpmin=0 / qpmax=69 / qpstep=4 / cplxblur=20.0 / qblur=0.5 / vbv_maxrate=20000 / vbv_bufsize=25000 / nal_hrd=none / filler=0 / ip_ratio=1.40 / aq=1:1.00
Encoded date : UTC 1904-01-01 00:00:00
Tagged date : UTC 1904-01-01 00:00:00
Color range : Limited
Color primaries : BT.709
Transfer characteristics : BT.709
Matrix coefficients : BT.709

Audio
ID : 2
Format : AAC
Format/Info : Advanced Audio Codec
Format profile : LC
Codec ID : 40
Duration : 30mn 2s
Bit rate mode : Constant
Bit rate : 165 Kbps
Channel(s) : 2 channels
Channel positions : Front: L R
Sampling rate : 48.0 KHz
Frame rate : 46.875 fps (1024 spf)
Compression mode : Lossy
Stream size : 35.4 MiB (1%)

Скриншоты:


_________________
Проголосуй за трекер Открытый торрент трекер - RUS-MEDIA.ORG

Проголосуй Открытый торрент трекер - RUS-MEDIA.ORG


Вернуться к началу
 Профиль Отправить личное сообщение  
 
   Похожие торренты   Автор   Торрент   Размер 
В этой теме нет новых непрочитанных сообщений. [SisLovesMe.com] Alice Coxxx & Kat Hunter - SISTERLY LOVE (08.08.2017) [All Sex, Blowjob, Treesome, 1080p]

salma3

29 | 10

5.18 ГБ

В этой теме нет новых непрочитанных сообщений. [FamilyStrokes.com] Alice Coxxx (Stepfathers Perfect Fit / 2017-08-31) [2017 г., Teen, Natural Tits, Blowjob, Hardcore, All Sex, 1080p]

salma3

20 | 7

2.47 ГБ

В этой теме нет новых непрочитанных сообщений. [FamilyStrokes.com] Alice Coxxx - Stepfathers Perfect Fit (31.08.2017) [All sex]

salma3

25 | 8

205.72 МБ

В этой теме нет новых непрочитанных сообщений. [SisLovesMe.com] Alice Coxxx & Kat Hunter - SISTERLY LOVE (08.08.2017) [All Sex, Blowjob, Treesome]

salma3

38 | 12

446.68 МБ

В этой теме нет новых непрочитанных сообщений. [TeensLikeItBig.com / Brazzers.com] Alice Coxxx - Sister Of The Bride (18.08.2017) [Blowjob (POV), Cheating, Couples Fantasies, Handjob (POV), Natural Tits, Redhead, Teen]

salma3

37 | 12

329.86 МБ

В этой теме нет новых непрочитанных сообщений. [TeensLikeItBig.com / Brazzers.com] Alice Coxxx - Sister Of The Bride (18.08.2017) [Blowjob (POV), Cheating, Couples Fantasies, Handjob (POV), Natural Tits, Redhead, Teen]

salma3

26 | 8

620.89 МБ

В этой теме нет новых непрочитанных сообщений. [WankzVR.com] Alice Coxxx & Davina Davis (Pool Pump) [2017 г., Threesomes FFM, Ass Licking, POV, Blowjob, Face Sitting, Facial Cumshot, Red Head, All sex, Oculus, Virtual Reality, VR]

salma3

5 | 1

14.39 ГБ


Начать новую тему Ответить на тему  [ 1 сообщение ] 




Для Мосгорсуда, Роскомнадзора и рекламодателей:: mosgorsud-torrent[собачка]yandex.ru
cron