Торрент файл
скачать торрент магнет ссылка Добавлен: 02 янв 2012, 21:20
Размер: 18.64 ГБ
Сидеров: 5
Личеров: 6
Автор

СообщениеДобавлено: 02 янв 2012, 21:20 

Не в сети
Супермодератор
Аватара пользователя
Дата регистрации:
11 апр 2010, 18:10
Спасибо: 5799 / 7
Сообщения: 56779
Тайны Хейвена, 2 сезон 1-13 серии / Haven


Перевод: Профессиональный (многоголосый, закадровый), cубтитры: отсутствуют
Формат: WEB-DL, MKV, H.264, AC3
Страна: Канада
Режиссер: Adam Kane
Жанр: ужасы, фэнтези, триллер, драма, криминал, детектив
Всего серий: 13
Продолжительность: 13 х 00:42
Год выпуска: 2011
В ролях: Emily Rose, Eric Balfour, Lucas Bryant, Nicholas Campbell, Richard Donat

Описание: В маленький город Хейвен приезжает агент ФБР Одри Паркер, чтобы расследовать смерть бывшего преступника. Из-за своего природного любопытства она попала в эпицентр этого необычного анклава, который, оказывается, издавна служил пристанищем для людей со сверхспособностями. Среди местных жителей города полицейский Натан Вурно, который стал напарником Одри, и загадочный и обаятельный мастер на все руки Дюк Крокер.

Рейтинг на :

Видео: 1280x720 (16:9), MPEG4/ISO/AVC , 23.976 fps, 3825 Kbps, 0.173 bit/pixel
Аудио Rus: 48.0 kHz, AC3 Dolby Digital, 2/0 (L, R) ch, ~384 kbps
Аудио Eng: 48.0 kHz, AC3 Dolby Digital, 3/2 (L, C, R, l, r) + LFE ch, ~384 kbps

Доп. информация: Озвучка: Закадровая многоголосая (SyFy).

Релиз от:


Общее
Уникальный идентификатор: 222682586874285698562314414763911777748 (0xA7871B30F00C71C7ACFAF1AD21E18DD4)
Полное имя: D:\Фильмы\Haven_s02_[tfile.ru]\Haven_s02_e01_[tfile.ru].mkv
Формат: Matroska
Размер файла: 1,38 Гбайт
Продолжительность: 42 м.
Общий поток: 4686 Кбит/сек
Дата кодирования: UTC 2011-10-10 18:16:34
Программа кодирования: mkvmerge v4.3.0 ('Escape from the Island') сборка от Sep5 2010 10:30:51
Библиотека кодирования: libebml v1.0.0 + libmatroska v1.0.0

Видео
Идентификатор: 1
Формат: AVC
Формат/Информация: Advanced Video Codec
Профиль формата:
Параметр CABAC формата: Нет
Параметр ReFrames формата: 2 кадры
Идентификатор кодека: V_MPEG4/ISO/AVC
Продолжительность: 42 м.
Битрейт: 3825 Кбит/сек
Ширина: 1280 пикс.
Высота: 720 пикс.
Соотношение сторон: 16:9
Частота кадров: 23,976 кадр/сек
Цветовое пространство: YUV
Подвыборка цветности: 4:2:0
Битовая глубина: 8 бит
Тип развёртки: Прогрессивная
Бит/(Пиксели*Кадры): 0.173
Размер потока: 1,13 Гбайт (82%)
Язык: English
Основные цвета: BT.709-5, BT.1361, IEC 61966-2-4, SMPTE RP177
Характеристики трансфера: BT.709-5, BT.1361
Коэффициенты матрицы: BT.709-5, BT.1361, IEC 61966-2-4 709, SMPTE RP177

Аудио #1
Идентификатор: 2
Формат: AC-3
Формат/Информация: Audio Coding 3
Расширение режима: CM (complete main)
Идентификатор кодека: A_AC3
Продолжительность: 42 м.
Вид битрейта: Постоянный
Битрейт: 384 Кбит/сек
Канал(ы): 2 канала(ов)
Расположение каналов: Front: L R
Частота: 48,0 КГц
Битовая глубина: 16 бит
Метод сжатия: С потерями
Размер потока: 116 Мбайт (8%)

Аудио #2
Идентификатор: 3
Формат: AC-3
Формат/Информация: Audio Coding 3
Расширение режима: CM (complete main)
Идентификатор кодека: A_AC3
Продолжительность: 42 м.
Вид битрейта: Постоянный
Битрейт: 384 Кбит/сек
Канал(ы): 6 канала(ов)
Расположение каналов: Front: L C R, Side: L R, LFE
Частота: 48,0 КГц
Битовая глубина: 16 бит
Метод сжатия: С потерями
Размер потока: 116 Мбайт (8%)










Не забываем голосовать за наш сайт здесь: и здесь: Если понравилась раздача, Жмём + Здесь


Внимание,добавлена 12-13-ая серии 01.01.2012 перезалейте торрент-файл!


Поделиться:




реклама партнёра


Вернуться к началу
 Профиль Отправить личное сообщение  
 
   Похожие торренты   Автор   Торрент   Размер 
В этой теме нет новых непрочитанных сообщений. Хэйвен / Тайны Хейвена / Haven [S01-04] [триллер, фэнтези, драма, 2010-2013] WEB-DLRip, Dvo [Кубик в Кубе]

salma3

58 | 59

22.93 ГБ

В этой теме нет новых непрочитанных сообщений. Тайны Хейвена / Haven [05х01-15 из 26] (Т.У. Пикок, Ли Роуз, Тим Соутэм, Фред Гербер) [2014-2015, Мистический триллер, криминальный детектив, ужасы, WEB-DL 1080p | Кубик в Кубе]

Nickolas3435

8 | 37

25.92 ГБ

В этой теме нет новых непрочитанных сообщений. Тайны Хейвена / Haven [05х01-15 из 26] (Т.У. Пикок, Ли Роуз, Тим Соутэм, Фред Гербер) [2014-2015, Мистический триллер, криминальный детектив, ужасы, WEB-DL 720p | Кубик в Кубе]

Nickolas3435

13 | 35

21.81 ГБ

В этой теме нет новых непрочитанных сообщений. Тайны Хейвена / Haven [05х01-15 из 26] (Т.У. Пикок, Ли Роуз, Тим Соутэм, Фред Гербер) [2014-2015, Мистический триллер, криминальный детектив, ужасы, WEB-DLRip | Кубик в Кубе]

Nickolas3435

62 | 180

12.49 ГБ

В этой теме нет новых непрочитанных сообщений. Хэйвен / Haven / 5 сезон 1-3 серии из 13 [фэнтези, триллер, драма, детектив, 2014] WEB-DLRip, Mvo [BaibaKo]

salma3

10 | 3

1.71 ГБ

В этой теме нет новых непрочитанных сообщений. Хейвен / Haven [05x01] (Т.У. Пикок, Ли Роуз, Тим Соутэм) [2014, Фэнтези, триллер, драма, криминал, детектив, HDTV 720р | Kerob]

Nickolas3435

36 | 3

1.06 ГБ

В этой теме нет новых непрочитанных сообщений. Укушенная / Bitten / 2 сезон 1-10 серии из 10 [ужасы, фэнтези, детектив, драма, 2015] WEB-DLRip, Mvo [LostFilm ]

salma3

134 | 61

3.66 ГБ


Начать новую тему Ответить на тему  [ 1 сообщение ] 




Для Мосгорсуда, Роскомнадзора и рекламодателей:: mosgorsud-torrent[собачка]yandex.ru