Торрент файл
скачать торрент магнет ссылка Добавлен: 02 янв 2012, 21:16
Размер: 22.09 ГБ
Сидеров: 0
Личеров: 6
Автор

СообщениеДобавлено: 02 янв 2012, 21:16 

Не в сети
Супермодератор
Аватара пользователя
Дата регистрации:
11 апр 2010, 18:10
Спасибо: 5802 / 7
Сообщения: 56779
Подпольная / Преступная Империя, 2 сезон 1-12 серии из 12 / Boardwalk Empire


Перевод: Профессиональный (многоголосый, закадровый), [Первый канал] cубтитры: отсутствуют
Формат: HDTV, MKV, H.264/AVC, AC3
Страна: США
Режиссер: Дэвид Петрарка,Тимоти Ван Паттен и др.
Жанр: Драма, криминал
Всего серий: 12
Продолжительность: 12 х 00:57
Год выпуска: 2011

В ролях: Steve Buscemi, Michael Pitt, Kelly Macdonald, Michael Shannon, Dabney Coleman, Shea Whigham и др.

Описание: Когда алкоголь был объявлен вне закона, преступники стали королями" 1920 год. После введения "сухого закона" организованная преступность в США получила богатое поле для деятельности. Городской казначей Атлантик-Сити, Енох "Наки" Томпсон создаёт свою преступную империю, налаживая каналы нелегального ввоза алкогольных напитков в сотрудничестве с криминальными структурами. Фильм снят по книге Нельсона Джонсона и основан на реальных событиях.

Рейтинг на:

Видео: 1280х720, (16/9), 23,976 fps, V_MPEG4/ISO/AVC, , ~3842 kbps avg, 0.174 bit/pixel

Аудио Rus/Eng: 48 kHz, AC3 Dolby Digital, 2/0 (L,R) ch, ~384 kbps

Доп. информация:

Перевод и озвучивание: 1 телеканал

Релиз от:

Общее
Уникальный идентификатор: 230955422320530767539468117669800430697 (0xADC065784793D735B0A3AD8EA075CC69)
Полное имя: E:\Boardwalk_empire_s02_[LostFilm]_[tfile.ru]\boardwalk_empire_s02_e01_[tfile.ru].mkv
Формат: Matroska
Версия формата: Version 2
Размер файла: 1,77 Гбайт
Продолжительность: 53 м.
Общий поток: 4704 Кбит/сек
Дата кодирования: UTC 2011-09-29 21:39:57
Программа кодирования: mkvmerge v4.3.0 ('Escape from the Island') сборка от Sep5 2010 10:30:51
Библиотека кодирования: libebml v1.0.0 + libmatroska v1.0.0

Видео
Идентификатор: 1
Формат: AVC
Формат/Информация: Advanced Video Codec
Профиль формата:
Параметр CABAC формата: Нет
Параметр ReFrames формата: 3 кадра
Идентификатор кодека: V_MPEG4/ISO/AVC
Продолжительность: 53 м.
Битрейт: 3842 Кбит/сек
Ширина: 1280 пикселей
Высота: 720 пикселей
Соотношение сторон: 16:9
Частота кадров: 23,976 кадра/сек
Стандарт вещания: NTSC
Цветовое пространство: YUV
Субдискретизация насыщенности: 4:2:0
Битовая глубина: 8 бит
Тип развёртки: Прогрессивная
Бит/(Пиксели*Кадры): 0.174
Размер потока: 1,44 Гбайт (82%)
Основные цвета: BT.709-5, BT.1361, IEC 61966-2-4, SMPTE RP177
Характеристики трансфера: BT.709-5, BT.1361
Коэффициенты матрицы: BT.709-5, BT.1361, IEC 61966-2-4 709, SMPTE RP177

Аудио #1
Идентификатор: 2
Формат: AC-3
Формат/Информация: Audio Coding 3
Расширение режима: CM (complete main)
Идентификатор кодека: A_AC3
Продолжительность: 53 м.
Вид битрейта: Постоянный
Битрейт: 384 Кбит/сек
Каналы: 2 канала
Расположение каналов: Front: L R
Частота: 48,0 КГц
Битовая глубина: 16 бит
Метод сжатия: С потерями
Размер потока: 148 Мбайт (8%)

Аудио #2
Идентификатор: 3
Формат: AC-3
Формат/Информация: Audio Coding 3
Расширение режима: CM (complete main)
Идентификатор кодека: A_AC3
Продолжительность: 53 м.
Вид битрейта: Постоянный
Битрейт: 384 Кбит/сек
Каналы: 2 канала
Расположение каналов: Front: L R
Частота: 48,0 КГц
Битовая глубина: 16 бит
Метод сжатия: С потерями
Размер потока: 148 Мбайт (8%)














Не забываем голосовать за наш сайт здесь: и здесь: Если понравилась раздача, Жмём + Здесь

Внимание, добавлена 12-ая серия 23.12.2011, перезакачайте Торрент- файл!

Сезон закончен!


Поделиться:




реклама партнёра


Вернуться к началу
 Профиль Отправить личное сообщение  
 
   Похожие торренты   Автор   Торрент   Размер 
В этой теме нет новых непрочитанных сообщений. Подпольная Империя / Boardwalk Empire [S01-05] (Тимоти Ван Паттен, Аллен Култер) [Драма, Криминал, 2010-2014] BDRip, HDTVRip 720p, Mvo+Avo

Dracon

23 | 95

143.16 ГБ

В этой теме нет новых непрочитанных сообщений. Подпольная Империя / Boardwalk Empire [S05] [Драма, криминал, 2014] HDTVRip 720p, Mvo+Sub [Amedia]

Dracon

72 | 16

10.4 ГБ

В этой теме нет новых непрочитанных сообщений. Подпольная Империя / Boardwalk Empire [s05] [драма, криминал, 2014] HDTVRip, Mvo+Sub [Amedia]

Dracon

441 | 246

5.99 ГБ

В этой теме нет новых непрочитанных сообщений. Подпольная Империя / Boardwalk Empire [S1-S4] [драма, криминал, 2013] BDRip, HDTVRip, WEB-DLRip, Mvo

Dracon

676 | 258

35.41 ГБ

В этой теме нет новых непрочитанных сообщений. This Ain't Boardwalk Empire XXX: This Is A Parody / Это Не Подпольная Империя XXX Пародия (Stuart Canterbury / Hustler) (Alana Rains, Anthony Rosano, Presley Hart, Cassandra Nix) [2014 г., Feature, Spoofs & Parodies, WEB-DL 1080p]

friizze

0 | 12

6.56 ГБ

В этой теме нет новых непрочитанных сообщений. Клан Сопрано / The Sopranos [S01-06] (Тимоти Ван Паттен, Джон Паттерсон, Аллен Коултер) [1999-2007, Драма, Криминал, WEB-DL 720p | Пучков, Чадов]

Nickolas3435

1 | 121

180.21 ГБ

В этой теме нет новых непрочитанных сообщений. Империя / Empire [триллер, драма, криминал, 2002] WEB-DLRip, Mvo

salma3

8 | 2

1.46 ГБ


Начать новую тему Ответить на тему  [ 1 сообщение ] 




Для Мосгорсуда, Роскомнадзора и рекламодателей:: mosgorsud-torrent[собачка]yandex.ru