Торрент файл
скачать торрент магнет ссылка Добавлен: 20 дек 2011, 00:32
Размер: 26.24 ГБ
Сидеров: 3
Личеров: 5
Автор

СообщениеДобавлено: 20 дек 2011, 00:32 

Не в сети
Супермодератор
Аватара пользователя
Дата регистрации:
11 апр 2010, 18:10
Спасибо: 5801 / 7
Сообщения: 56779
Подпольная / Преступная Империя, 2 сезон 1-12 серии из 12 / Boardwalk Empire

Перевод: Профессиональный (одноголосый, закадровый), cубтитры: отсутствуют
Формат: HDTV, MKV, H.264, AC3
Страна: США
Режиссер: Дэвид Петрарка, Тимоти Ван Паттен, Аллен Култер, Брэд Андерсо и др.
Жанр: Драма, криминал
Всего серий: 12
Продолжительность: 12 х 00:57
Год выпуска: 2011
В ролях: Стив Бушеми (Enoch «Nucky» Thompson), Майкл Питт (James «Jimmy» Darmody), Ши Уигхэм (Elias «Eli» Thompson), Майкл Шеннон (Agent Nelson Van Alden) и др.

Описание: События сериала Boardwalk Empire происходят в 1920, начале 1930 годов, во время рассвета сухого закона и итальянской мафии. В сериале представлены такие знаменитости криминального мира, как Сальваторе «Счастливчик» Лучиано и Аль Капоне. Главные герои, Наки Томпсон (в исполнении Стива Бушеми) – негласный правитель Атлантик-Сити, в равной степени гангстер и политик и его помошник Джимми Дармоди (Майкл Питт). Зрители сериала окунутся в грязный мир политики и игорного бизнеса, мафиозных разборок и зажигательного варьете.

Рейтинг на:

Видео: 1280x720 (16:9), MPEG4/ISO/AVC High@L4.1, 23.976 fps, 4711 kbps avg, 0,21 bit/pixel
Аудио Rus: 48.0 kHz, AC3 Dolby Digital, 3/2 (L, C, R, l, r) + LFE ch, ~384 kb
Аудио Eng: 48.0 kHz, AC3 Dolby Digital, 2/0 (L R) ch, ~384 kb

Доп. информация: ВНИМАНИЕ! В сериале присутствует ненормативная лексика.

Перевод: Ю. Сербин

слоган «Atlantic City, 1920. When alcohol was outlawed, outlaws became kings»

Релиз и озвучка от:

Общее
Уникальный идентификатор: 248283464568658567411674582105949129677 (0xBAC9A7E9C6D2EFDAA5EA029450DACBCD)
Полное имя: E:\Boardwalk_empire_s02_[tfile.ru]\boardwalk_empire_s02_e01_[tfile.ru].mkv
Формат: Matroska
Версия формата: Version 2
Размер файла: 2,19 Гбайт
Продолжительность: 57 м.
Общий поток: 5480 Кбит/сек
Дата кодирования: UTC 2011-09-27 12:45:02
Программа кодирования: mkvmerge v4.9.1 ('Ich will') сборка от Jul 11 2011 23:53:15
Библиотека кодирования: libebml v1.2.1 + libmatroska v1.1.1

Видео
Идентификатор: 1
Формат: AVC
Формат/Информация: Advanced Video Codec
Профиль формата: High@L4.1
Параметр CABAC формата: Да
Параметр ReFrames формата: 6 кадров
Идентификатор кодека: V_MPEG4/ISO/AVC
Продолжительность: 57 м.
Битрейт: 4711 Кбит/сек
Ширина: 1280 пикселей
Высота: 720 пикселей
Соотношение сторон: 16:9
Частота кадров: 23,976 кадра/сек
Цветовое пространство: YUV
Субдискретизация насыщенности: 4:2:0
Битовая глубина: 8 бит
Тип развёртки: Прогрессивная
Бит/(Пиксели*Кадры): 0.213
Размер потока: 1,84 Гбайт (84%)
Заголовок: Boardwalk Empire - Season 2, Episode 1: 21
Библиотека кодирования: x264 core 116 r2074 2641b9e
Настройки программы: cabac=1 / ref=6 / deblock=1:-3:-3 / analyse=0x3:0x133 / me=umh / subme=6 / psy=1 / psy_rd=1.00:0.00 / mixed_ref=1 / me_range=24 / chroma_me=1 / trellis=2 / 8x8dct=1 / cqm=0 / deadzone=21,11 / fast_pskip=1 / chroma_qp_offset=-4 / threads=3 / sliced_threads=0 / nr=0 / decimate=1 / interlaced=0 / bluray_compat=0 / constrained_intra=0 / bframes=3 / b_pyramid=0 / b_adapt=2 / b_bias=0 / direct=3 / weightb=1 / open_gop=0 / weightp=2 / keyint=250 / keyint_min=23 / scenecut=40 / intra_refresh=0 / rc_lookahead=40 / rc=2pass / mbtree=1 / bitrate=4711 / ratetol=1.0 / qcomp=0.60 / qpmin=10 / qpmax=51 / qpstep=4 / cplxblur=20.0 / qblur=0.5 / ip_ratio=1.40 / aq=1:1.00
Язык: English

Аудио #1
Идентификатор: 2
Формат: AC-3
Формат/Информация: Audio Coding 3
Расширение режима: CM (complete main)
Идентификатор кодека: A_AC3
Продолжительность: 57 м.
Вид битрейта: Постоянный
Битрейт: 384 Кбит/сек
Каналы: 6 каналов
Расположение каналов: Front: L C R, Side: L R, LFE
Частота: 48,0 КГц
Битовая глубина: 16 бит
Метод сжатия: С потерями
Размер потока: 157 Мбайт (7%)
Заголовок: Dolby Digital 5.1 @ 384 kbps
Язык: Russian

Аудио #2
Идентификатор: 3
Формат: AC-3
Формат/Информация: Audio Coding 3
Расширение режима: CM (complete main)
Идентификатор кодека: A_AC3
Продолжительность: 57 м.
Вид битрейта: Постоянный
Битрейт: 384 Кбит/сек
Каналы: 2 канала
Расположение каналов: Front: L R
Частота: 48,0 КГц
Битовая глубина: 16 бит
Метод сжатия: С потерями
Размер потока: 157 Мбайт (7%)
Заголовок: Dolby Digital 5.1 @ 384 kbps
Язык: English















Не забываем голосовать за наш сайт здесь: и здесь: Если понравилась раздача, Жмём +

Внимание,добавлена 12- ая серия, 15.12.2011, перезакачайте Торрент- Файл!
Поделиться:




реклама партнёра


Вернуться к началу
 Профиль Отправить личное сообщение  
 
   Похожие торренты   Автор   Торрент   Размер 
В этой теме нет новых непрочитанных сообщений. Подпольная Империя / Boardwalk Empire [S01-05] (Тимоти Ван Паттен, Аллен Култер) [Драма, Криминал, 2010-2014] BDRip, HDTVRip 720p, Mvo+Avo

Dracon

23 | 95

143.16 ГБ

В этой теме нет новых непрочитанных сообщений. Подпольная Империя / Boardwalk Empire [S05] [Драма, криминал, 2014] HDTVRip 720p, Mvo+Sub [Amedia]

Dracon

72 | 16

10.4 ГБ

В этой теме нет новых непрочитанных сообщений. Подпольная Империя / Boardwalk Empire [s05] [драма, криминал, 2014] HDTVRip, Mvo+Sub [Amedia]

Dracon

441 | 246

5.99 ГБ

В этой теме нет новых непрочитанных сообщений. Подпольная Империя / Boardwalk Empire [S1-S4] [драма, криминал, 2013] BDRip, HDTVRip, WEB-DLRip, Mvo

Dracon

677 | 258

35.41 ГБ

В этой теме нет новых непрочитанных сообщений. This Ain't Boardwalk Empire XXX: This Is A Parody / Это Не Подпольная Империя XXX Пародия (Stuart Canterbury / Hustler) (Alana Rains, Anthony Rosano, Presley Hart, Cassandra Nix) [2014 г., Feature, Spoofs & Parodies, WEB-DL 1080p]

friizze

0 | 12

6.56 ГБ

В этой теме нет новых непрочитанных сообщений. Клан Сопрано / The Sopranos [S01-06] (Тимоти Ван Паттен, Джон Паттерсон, Аллен Коултер) [1999-2007, Драма, Криминал, WEB-DL 720p | Пучков, Чадов]

Nickolas3435

1 | 121

180.21 ГБ

В этой теме нет новых непрочитанных сообщений. Империя / Empire [триллер, драма, криминал, 2002] WEB-DL 1080p, Mvo

salma3

87 | 2

3.33 ГБ


Начать новую тему Ответить на тему  [ 1 сообщение ] 




Для Мосгорсуда, Роскомнадзора и рекламодателей:: mosgorsud-torrent[собачка]yandex.ru