Торрент файл
скачать торрент магнет ссылка Добавлен: 20 дек 2011, 00:30
Размер: 19.85 ГБ
Сидеров: 94
Личеров: 25
Автор

СообщениеДобавлено: 20 дек 2011, 00:30 

Не в сети
Супермодератор
Аватара пользователя
Дата регистрации:
11 апр 2010, 18:10
Спасибо: 5960 / 7
Сообщения: 56770
Хранилище 13 / Ангар 13, 2 сезон 1-13 серии из 13 / Warehouse 13

Перевод: Профессиональный (многоголосый, закадровый), cубтитры: есть (Английские, отключаемые)
Формат: WEB-DL, MKV, H.264, AC3
Страна: США
Режиссер: Стефан Суржик
Жанр: фантастика, драма, детектив
Всего серий: 13
Продолжительность: 13 х 00:43
Год выпуска: 2010
В ролях: Eddie McClintock, Joanne Kelly, Saul Rubinek, Genelle Williams, Allison Scagliotti, CCH Pounder и др.
Описание: После спасения президента США, карьера двух агентов секретной службы делает резкий поворот! Разбитной Пит Латтимер и отличница Майка Беринг внезапно узнают о своем новом назначении - таинственный Ангар 13 в Богом забытой Южной Дакоте... Это огромное сверхсекретное хранилище, в котором находятся все артефакты и реликвии, всё сверхъественное, инопланетное или просто очень странное, что когда-либо попадало в руки американскому правительству! Вместе с Арти Нильсеном им предстоит отслеживать необъяснимые явления, раскрывать фантастические загадки и пополнять Ангар 13 новыми завораживающими артефактами...
Рейтинг на :

Видео: 1280х720, (16/9), 23.976 fps, V_MPEG4/ISO/AVC, High@L3.1, ~4025 Kbps avg, 0.182 bit/pixels
Аудио:
Russian: 48.0 KHz, AC3 Dolby Digital, 3/2 (L, C, R, l, r) + LFE ch, ~448 Kbps avg
English: 48.0 KHz, AC3 Dolby Digital, 3/2 (L, C, R, l, r) + LFE ch, ~384 Kbps avg
Доп. информация:
Релиз от:

Перевод: В. Богданов.

Озвучка: Студия "Kravec".









Соотношение сторон: 16:9
Частота кадров: 23,976 кадра/сек
Цветовое пространство: YUV
Субдискретизация насыщенности: 4:2:0
Битовая глубина: 8 бит
Тип развёртки: Прогрессивная
Бит/(Пиксели*Кадры): 0.182
Размер потока: 1,23 Гбайт (81%)
Заголовок: Season 2, Episode 1: Time Will Tell / Время покажет
Язык: English
Default: Да
Forced: Нет
Основные цвета: BT.709-5, BT.1361, IEC 61966-2-4, SMPTE RP177
Характеристики трансфера: BT.709-5, BT.1361
Коэффициенты матрицы: BT.709-5, BT.1361, IEC 61966-2-4 709, SMPTE RP177

Аудио #1
Идентификатор: 2
Формат: AC-3
Формат/Информация: Audio Coding 3
Расширение режима: CM (complete main)
Идентификатор кодека: A_AC3
Продолжительность: 43 м.
Вид битрейта: Постоянный
Битрейт: 448 Кбит/сек
Каналы: 6 каналов
Расположение каналов: Front: L C R, Side: L R, LFE
Частота: 48,0 КГц
Битовая глубина: 16 бит
Метод сжатия: С потерями
Размер потока: 140 Мбайт (9%)
Язык: Russian
Default: Да
Forced: Нет

Аудио #2
Идентификатор: 3
Формат: AC-3
Формат/Информация: Audio Coding 3
Расширение режима: CM (complete main)
Идентификатор кодека: A_AC3
Продолжительность: 43 м.
Вид битрейта: Постоянный
Битрейт: 384 Кбит/сек
Каналы: 6 каналов
Расположение каналов: Front: L C R, Side: L R, LFE
Частота: 48,0 КГц
Битовая глубина: 16 бит
Метод сжатия: С потерями
Размер потока: 120 Мбайт (8%)
Язык: English
Default: Нет
Forced: Нет

Текст
Идентификатор: 4
Формат: UTF-8
Идентификатор кодека: S_TEXT/UTF8
Идентификатор кодека/Информация: UTF-8 Plain Text
Язык: English
Default: Нет
Forced: Нет

Не забываем голосовать за наш сайт здесь: и здесь: Если понравилась раздача, Жмём +
Поделиться:




реклама партнёра


Вернуться к началу
 Профиль Отправить личное сообщение  
 
   Похожие торренты   Автор   Торрент   Размер 
В этой теме нет новых непрочитанных сообщений. Слепое пятно / Blindspot / 2 сезон 1-22 серии из 22 [Драма, детектив, 2016] WEB-DL 720p, Mvo [LostFilm]

salma3

37 | 91

31.71 ГБ

В этой теме нет новых непрочитанных сообщений. Салем / Salem / 3 сезон 1-10 серии из 10 [фантастика, триллер, драма, 2016] WEB-DL 720p, Mvo [LostFilm]

salma3

26 | 51

16.43 ГБ

В этой теме нет новых непрочитанных сообщений. Чёрный список / The Blacklist / 5 сезон 1-08 серии из 23 [Драма, детектив, 2017] WEBRip 720p, Mvo [LostFilm]

salma3

0 | 0

13.97 ГБ

В этой теме нет новых непрочитанных сообщений. Нация Z / Z Nation / 3 сезон 1-15 серии из 15 [Боевик, Драма, Ужасы, Фантастика,, 2016] WEB-DL 720p, Mvo [LostFilm]

salma3

79 | 238

21.4 ГБ

В этой теме нет новых непрочитанных сообщений. Сонная Лощина / Sleepy Hollow / 4 сезон 1-13 серии из 13 [Фэнтези, триллер, драма, детектив, приключения, 2017] WEB-DL 720p, Mvo [LostFilm]

salma3

3 | 1

19.63 ГБ

В этой теме нет новых непрочитанных сообщений. Вызов / Непокорная Земля / Defiance [3 сезон 1-13 серии из 13] (Майкл Нанкин) [фантастика, боевик, драма, 2015] WEB-DLRip 720p, Mvo [LostFilm]

Dracon

85 | 116

18.28 ГБ

В этой теме нет новых непрочитанных сообщений. Быть Человеком / Being Human (USA) [S04] (Паоло Барзмен, Адам Кэйн, Стефан Плещински) [2014, ужасы, фантастика, фэнтези, драма, WEB-DLRip | LostFilm]

Dracon

12 | 2

7.57 ГБ


Начать новую тему Ответить на тему  [ 1 сообщение ] 




Для Мосгорсуда, Роскомнадзора и рекламодателей:: mosgorsud-torrent[собачка]yandex.ru