Торрент файл
скачать торрент магнет ссылка Добавлен: 20 дек 2011, 00:30
Размер: 20.74 ГБ
Сидеров: 42
Личеров: 14
Автор

СообщениеДобавлено: 20 дек 2011, 00:30 

Не в сети
Супермодератор
Аватара пользователя
Дата регистрации:
11 апр 2010, 18:10
Спасибо: 5801 / 7
Сообщения: 56779
Хранилище 13 / Ангар 13, 3 сезон 1-13 серии из 13 / Warehouse 13

Перевод: Профессиональный (многоголосый, закадровый), cубтитры: отсутствуют
Формат: WEB-DL, MKV, H.264, AC3
Страна: США
Режиссер: Константин Макрис, Тауния Маккирнан
Жанр: фантастика, драма, детектив
Всего серий: 13
Продолжительность: 13 х 00:44
Год выпуска: 2011
В ролях: Джоэнн Келли, Эдди МакКлинток, Сол Рубинек, Эллисон Скальотти, Фаран Таир, Роберт Тсонос, Стивен Яффи, Кристофер Корделл, Бернадетт Кутюр
Описание: После того, как они спасли жизнь президенту, двух агентов ФБР (Эдди МакКлинток и Джоанн Келли) внезапно “повышают”, и отправляют в Южную Дакоту. Их сверхсекретное место назначения – Склад №13, огромное секретное хранилище, в котором находятся все артефакты, таинственные реликвии, фантастические предметы и сверхъественные “сувениры”, которые когда-либо попали в руки американскому правительству. Заведует складом Арти (Сол Рубинек). Кроме того, что агенты должны найти несколько объектов, которые были украдены со Склада, в их обязанности входит отслеживать и исследовать любые сверхъестественные и паранормальные явления, указывающие на присутствие еще одного предмета коллекции, и доставлять предмет на Cклад
Рейтинг на :

Видео: 1280х720, (16/9), 23,976 fps, V_MPEG4/ISO/AVC, High@L3.1, ~4497 kbps avg, 0.204 bit/pixel
Аудио: 48 kHz, AC3 Dolby Digital, 2/0 (L,R) ch, ~384 kbps avg
Доп. информация:
Релиз от:
Перевод: В. Богданов
Озвучка: Студия "Kravec"














Общее
Уникальный идентификатор: 177963028488421480887477789379256711802 (0x85E26EBBFCEC653482583B942088FA7A)
Полное имя: E:\Раздачи_для_[tfile.ru]\Warehouse_13_s03_[tfile.ru]\Warehouse_13_s03e01_[tfile.ru].mkv
Формат: Matroska
Версия формата: Version 2
Размер файла: 1,65 Гбайт
Продолжительность: 44 м.
Общий поток: 5372 Кбит/сек
Дата кодирования: UTC 2011-07-18 18:06:36
Программа кодирования: mkvmerge v4.3.0 ('Escape from the Island') сборка от Sep5 2010 10:30:51
Библиотека кодирования: libebml v1.0.0 + libmatroska v1.0.0

Видео
Идентификатор: 1
Формат: AVC
Формат/Информация: Advanced Video Codec
Профиль формата: Main@L3.1
Параметр CABAC формата: Нет
Параметр ReFrames формата: 3 кадра
Параметр GOP формата: M=2, N=24
Идентификатор кодека: V_MPEG4/ISO/AVC
Продолжительность: 44 м.
Битрейт: 4497 Кбит/сек
Ширина: 1280 пикселей
Высота: 720 пикселей
Соотношение сторон: 16:9
Частота кадров: 23,976 кадра/сек
Стандарт вещания: NTSC
Цветовое пространство: YUV
Субдискретизация насыщенности: 4:2:0
Битовая глубина: 8 бит
Тип развёртки: Прогрессивная
Бит/(Пиксели*Кадры): 0.204
Размер потока: 1,38 Гбайт (84%)
Default: Да
Forced: Нет
Основные цвета: BT.601-6 525, BT.1358 525, BT.1700 NTSC, SMPTE 170M
Характеристики трансфера: BT.709-5, BT.1361
Коэффициенты матрицы: BT.601-6 525, BT.1358 525, BT.1700 NTSC, SMPTE 170M

Аудио #1
Идентификатор: 2
Формат: AC-3
Формат/Информация: Audio Coding 3
Расширение режима: CM (complete main)
Идентификатор кодека: A_AC3
Продолжительность: 44 м.
Вид битрейта: Постоянный
Битрейт: 384 Кбит/сек
Каналы: 2 канала
Расположение каналов: Front: L R
Частота: 48,0 КГц
Битовая глубина: 16 бит
Метод сжатия: С потерями
Размер потока: 121 Мбайт (7%)
Default: Да
Forced: Нет

Аудио #2
Идентификатор: 3
Формат: AC-3
Формат/Информация: Audio Coding 3
Расширение режима: CM (complete main)
Идентификатор кодека: A_AC3
Продолжительность: 44 м.
Вид битрейта: Постоянный
Битрейт: 384 Кбит/сек
Каналы: 2 канала
Расположение каналов: Front: L R
Частота: 48,0 КГц
Битовая глубина: 16 бит
Метод сжатия: С потерями
Размер потока: 121 Мбайт (7%)
Default: Нет
Forced: Нет

Не забываем голосовать за наш сайт здесь: и здесь: Если понравилась раздача, Жмём +
Поделиться:




реклама партнёра


Вернуться к началу
 Профиль Отправить личное сообщение  
 
   Похожие торренты   Автор   Торрент   Размер 
В этой теме нет новых непрочитанных сообщений. Хранилище 13 / Ангар 13 / Warehouse 13 / 5 сезон 1-6 серии из 6 [фантастика, драма, детектив, 2014] WEB-DLRip, Mvo [LostFilm]

salma3

2 | 3

2.91 ГБ

В этой теме нет новых непрочитанных сообщений. Хранилище 13 / Warehouse 13 [S05] [фантастика, драма, детектив, 2014] WEB-DL 1080р, Mvo [LostFilm]

salma3

8 | 11

9.05 ГБ

В этой теме нет новых непрочитанных сообщений. Хранилище 13 / Warehouse 13 [S01-05] [Фантастика, драма, детектив, 2009-2014] WEB-DLRip, Mvo [КПК] [LostFilm]

salma3

36 | 28

12.42 ГБ

В этой теме нет новых непрочитанных сообщений. Хранилище 13 / Warehouse 13 [S01-05] [фантастика, драма, детектив, 2009-2014] WEB-DLRip, Mvo [LostFilm]

salma3

166 | 171

28.11 ГБ

В этой теме нет новых непрочитанных сообщений. Салем / Salem / 3 сезон 1-04 серии из 13 [фантастика, триллер, драма, 2016] WEB-DL 720p, Mvo [LostFilm]

salma3

36 | 72

6.6 ГБ

В этой теме нет новых непрочитанных сообщений. Нация Z / Z Nation / 3 сезон 1-13 серии из 14 [Боевик, Драма, Ужасы, Фантастика,, 2016] WEB-DL 720p, Mvo [LostFilm]

salma3

7 | 58

18.57 ГБ

В этой теме нет новых непрочитанных сообщений. Стрела / Arrow / 2 сезон 1-23 серии из 23 [фантастика, боевик, драма, криминал, приключения, 2013-2014] WEB-DL 720p, Mvo [LostFilm]

salma3

12 | 3

32.92 ГБ


Начать новую тему Ответить на тему  [ 1 сообщение ] 




Для Мосгорсуда, Роскомнадзора и рекламодателей:: mosgorsud-torrent[собачка]yandex.ru