Торрент файл
скачать торрент магнет ссылка Добавлен: 20 дек 2011, 00:19
Размер: 1.28 ГБ
Сидеров: 0
Личеров: 6
Автор

СообщениеДобавлено: 20 дек 2011, 00:19 

Не в сети
Супермодератор
Аватара пользователя
Дата регистрации:
11 апр 2010, 18:10
Спасибо: 5960 / 7
Сообщения: 56765
[b]Дневники Вампира, 2 сезон 16 серия / The Vampire Diaries[/b]


«Love sucks»


Перевод: Профессиональный (многоголосый, закадровый)[Студия "LostFilm"]
Субтитры: отсутствуют
Формат: HDTV, MKV, H.264, AC3

Страна:США

Режиссер: Маркос Сига, Дж. Миллер Тобин, Лиз Фридлендер
Жанр: Ужасы, Фэнтези, Мелодрама, Драма
Всего серий: 22
Продолжительность: 00:41:16
Год выпуска: 2011

В ролях: Нина Добрев, Пол Уэсли, Иен Сомерхолдер, Стивен Р. МакКуин, Катерина Грэхэм, Кэндис Аккола, Зак Рериг, Сара Каннинг, Майкл Тревино, Мэттью Дэвис, Стивен Р. МакКуин, Бенджамин Эйрс, Стив Белфорд, Кайла Юэлл, Марси Т. Хаус.

Описание: Прошло всего четыре месяца после трагической аварии, в которой погибли их родители, и 17-летняя Елена Гилберт и ее 15-летний брат Джереми все еще пытаются оправиться от потери и вернуться к нормальной жизни. Елена всегда была отличной ученицей, красивой и популярной девушкой в школе, но теперь ей очень тяжело скрывать свою печаль от внешнего мира. В начале учебного года внимание Елены и ее друзей привлекает новый ученик, загадочный и красивый Стефан Сальваторе.

Стефан и Елена тут же чувствуют взаимную симпатию, но Елена даже не подозревает, что Стефан — вампир, которому уже сотни лет, и который старается мирно жить среди людей, несмотря на то, что его брат, Дэймон — воплощение вампирской жестокости и кровожадности. Теперь два брата-вампира — один добрый, другой злой — ведут борьбу за души Елены, ее друзей и других жителей городка Мистик Фоллз.


Рейтинг на:


Видео: 1280x720 (16:9), MPEG4/ISO/AVC, 23,976 fps, 3954 Kbps, 0.179 bit/pixel
Аудио: 48,0 kHz, AC-3,2 ch, Front: L, R, 384 kbps avg

Доп. информация:

Релиз группы:



E:\The_Vampire_Diaries_S02E16_[tfile.ru].mkv
General
Complete name : E:\The_Vampire_Diaries_S02E16_[tfile.ru].mkv
Format : Matroska
File size : 1.28 GiB
Duration : 41mn 16s
Overall bit rate : 4 427 Kbps
Encoded date : UTC 2011-02-26 13:12:46
Writing application : mkvmerge v3.2.0 ('Beginnings') built on Feb 12 2010 16:46:17
Writing library : libebml v0.7.9 + libmatroska v0.8.1
Video #2
ID : 2
Format : AVC
Format/Info : Advanced Video Codec
Format profile : High@L3.1
Format settings, CABAC : Yes
Format settings, ReFrames : 4 frames
Muxing mode : Container profile=Unknown@3.1
Codec ID : V_MPEG4/ISO/AVC
Duration : 41mn 13s
Bit rate : 3 954 Kbps
Nominal bit rate : 4 041 Kbps
Width : 1 280 pixels
Height : 720 pixels
Display aspect ratio : 16:9
Frame rate : 23.976 fps
Resolution : 24 bits
Colorimetry : 4:2:0
Scan type : Progressive
Bits/(Pixel*Frame) : 0.179
Stream size : 1.14 GiB (89%)
Writing library : x264 core 107 r1745 4785e8e
Encoding settings : cabac=1 / ref=3 / deblock=1:0:0 / analyse=0x3:0x113 / me=hex / subme=7 / psy=1 / psy_rd=1.00:0.00 / mixed_ref=1 / me_range=16 / chroma_me=1 / trellis=1 / 8x8dct=1 / cqm=0 / deadzone=21,11 / fast_pskip=1 / chroma_qp_offset=-2 / threads=4 / sliced_threads=0 / nr=0 / decimate=1 / interlaced=0 / constrained_intra=0 / bframes=3 / b_pyramid=2 / b_adapt=1 / b_bias=0 / direct=1 / weightb=1 / open_gop=0 / weightp=2 / keyint=250 / keyint_min=25 / scenecut=40 / intra_refresh=0 / rc_lookahead=40 / rc=2pass / mbtree=1 / bitrate=4041 / ratetol=1.0 / qcomp=0.60 / qpmin=10 / qpmax=51 / qpstep=4 / cplxblur=20.0 / qblur=0.5 / ip_ratio=1.40 / aq=1:1.00
Audio #1
ID : 1
Format : AC-3
Format/Info : Audio Coding 3
Codec ID : A_AC3
Duration : 41mn 16s
Bit rate mode : Constant
Bit rate : 384 Kbps
Channel(s) : 2 channels
Channel positions : L R
Sampling rate : 48.0 KHz
Stream size : 113 MiB (9%)


1 сезон

http://tfile.ru/forum/viewtopic.php?t=254634 [LostFilm]

2 сезон

1-15 серии http://tfile.ru/forum/viewtopic.php?t=356074 [LostFilm]
1-9 серии http://tfile.ru/forum/viewtopic.php?t=360454 [LostFilm] 720р
12 серия http://tfile.ru/forum/viewtopic.php?t=407234 [LostFilm] 720р
13 серия http://tfile.ru/forum/viewtopic.php?t=410164 [LostFilm] 720р
14 серия http://tfile.ru/forum/viewtopic.php?t=412621 [LostFilm] 720р
15 серия http://tfile.ru/forum/viewtopic.php?t=415699 [LostFilm] 720р












Поделиться:




реклама партнёра


Вернуться к началу
 Профиль Отправить личное сообщение  
 
   Похожие торренты   Автор   Торрент   Размер 
В этой теме нет новых непрочитанных сообщений. Дневники Вампира / The Vampire Diaries [06x01-12] (Маркос Сига, Элизабет Аллен) [2014, Ужасы, фэнтези, драма, мелодрама, HDTV 720p | ColdFilm]

Nickolas3435

16 | 94

10.98 ГБ

В этой теме нет новых непрочитанных сообщений. Дневники Вампира / The Vampire Diaries [06x01-11] (Маркос Сига, Элизабет Аллен)[2014, Ужасы, фэнтези, драма, мелодрама, HDTV 720p | ColdFilm]

Nickolas3435

7 | 85

10.09 ГБ

В этой теме нет новых непрочитанных сообщений. Дневники вампира / The Vampire Diaries [07х01-05 из 22] (Маркос Сига, Крис Грисмер, Венди Станцлер) [2015, ужасы, фэнтези, драма, мелодрама, HDTV 720p | Jaskier]

Nickolas3435

63 | 120

4.63 ГБ

В этой теме нет новых непрочитанных сообщений. Дневники вампира / The Vampire Diaries [07х01-05 из 22] (Кевин Брэй, Дж. Миллер Тобин, Маркос Сига) [2015, Драма, Мелодрама, Ужасы, Фэнтези, HDTV 720p | ColdFilm]

Nickolas3435

67 | 361

4.29 ГБ

В этой теме нет новых непрочитанных сообщений. Дневники вампира / The Vampire Diaries [S01-06] (Кевин Брэй, Дж. Миллер Тобин, Маркос Сига) [Драма, Мелодрама, Ужасы, Фэнтези, 2009-2015] WEB-DL 720p [LostFilm]

Dracon

6 | 60

188.25 ГБ

В этой теме нет новых непрочитанных сообщений. Дневники Вампира / The Vampire Diaries / 7 сезон 1-22 серии из 22 (Маркос Сига, Роб Харди, Дэвид Фон Энкен, Дж. Миллер Тобин) [2015, ужасы, фэнтези, триллер, драма, мелодрама, детектив, WEB-DLRip | LostFilm]

Dracon

368 | 281

8.29 ГБ

В этой теме нет новых непрочитанных сообщений. Дневники Вампира / The Vampire Diaries [06x01-09] (Маркос Сига, Элизабет Аллен) [2014, Ужасы, фэнтези, драма, мелодрама, HDTVRip | ColdFilm]

Nickolas3435

204 | 509

3.81 ГБ


Начать новую тему Ответить на тему  [ 1 сообщение ] 




Для Мосгорсуда, Роскомнадзора и рекламодателей:: mosgorsud-torrent[собачка]yandex.ru