Торрент файл
скачать торрент магнет ссылка Добавлен: 20 дек 2011, 00:03
Размер: 40 ГБ
Сидеров: 4
Личеров: 11
Автор

СообщениеДобавлено: 20 дек 2011, 00:03 

Не в сети
Супермодератор
Аватара пользователя
Дата регистрации:
11 апр 2010, 18:10
Спасибо: 5802 / 7
Сообщения: 56779
Потерянная комната, 1 сезон 1-6 серии из 6 / The Lost Room


Перевод: Профессиональный (многоголосый, закадровый), cубтитры: есть
Формат: HDTV 1080i, TS, MPEG-2, AC3
Страна: США
Режиссер: Крэйг Р. Бэксли, Майкл В. Уоткинс
Жанр: Фантастика, мистика, приключения, триллер
Всего серий: 6
Продолжительность: 6 х 00:43
Год выпуска: 2006
В ролях: Питер Краузе, Джулианна Маргулис, Питер Джейкобсон, Кевин Поллак, Дэннис Кристофер, Ивен Бремнер, Роджер Барт, Кристофер Бауэр, Элли Фаннинг, Эйприл Грэйс и др.

Описание: Что если весь мир устроен не так просто, как нам кажется? Что если самые простые бытовые предметы обладают свойствами, которые не поддаются объяснению? И что если самый близкий Вам человек оказался в плену этих мистических событий?
Предлагает вам присоединиться к детективу Джо Миллеру и другим героям новейшего телефильма «Пропавшая комната» и узнать всю правду о том, что случилось в десятом номере мотеля «Саншайн» и как это изменило судьбу всего мира.


Рейтинг на IMDB: 8.3/10

Видео: 1920x1080 (16:9), MPEG-2, Main@High, 29.970 fps, ~20.0 Mbps avg, 0.322 bit/pixel
Аудио Rus: 48 kHz, AC3, 3/2 (L,C,R,l,r) + LFE ch, ~384.00 kbps avg
Аудио Eng: 48 kHz, AC3, 3/2 (L,C,R,l,r) + LFE ch, ~640.00 kbps avg

Общее
Идентификатор: 1 (0x1)
Полное имя: D:\Торенты\the_lost_room_s01_1080i_[tfile.ru]\the_lost_room_s01_e01_[tfile.ru].ts
Формат: MPEG-TS
Размер файла: 6,73 Гбайт
Продолжительность: 43 м.
Общий поток: 22,1 Мбит/сек
Максимальный общий битрейт: 35,5 Мбит/сек

Видео
Идентификатор: 4113 (0x1011)
Идентификатор меню: 1 (0x1)
Формат: MPEG Video
Версия формата: Version 2
Профиль формата: Main@High
Параметр BVOP формата: Да
Параметр матрицы формата: По умолчанию
Идентификатор кодека: 2
Продолжительность: 43 м.
Вид битрейта: Переменный
Битрейт: 20,0 Мбит/сек
Номинальный битрейт: 24,0 Мбит/сек
Ширина: 1920 пикс.
Высота: 1080 пикс.
Соотношение сторон: 16:9
Частота кадров: 29,970 кадр/сек
Цветовое пространство: YUV
Подвыборка цветности: 4:2:0
Битовая глубина: 8 бит
Метод сжатия: С потерями
Бит/(Пиксели*Кадры): 0.322
Размер потока: 6,08 Гбайт (90%)

Аудио #1
Идентификатор: 4352 (0x1100)
Идентификатор меню: 1 (0x1)
Формат: AC-3
Формат/Информация: Audio Coding 3
Расширение режима: CM (complete main)
Идентификатор кодека: 129
Продолжительность: 43 м.
Вид битрейта: Постоянный
Битрейт: 384 Кбит/сек
Канал(ы): 6 канала(ов)
Расположение каналов: Front: L C R, Side: L R, LFE
Частота: 48,0 КГц
Битовая глубина: 16 бит
Метод сжатия: С потерями
Размер потока: 120 Мбайт (2%)
Язык: Russian

Аудио #2
Идентификатор: 4353 (0x1101)
Идентификатор меню: 1 (0x1)
Формат: AC-3
Формат/Информация: Audio Coding 3
Расширение режима: CM (complete main)
Идентификатор кодека: 129
Продолжительность: 43 м.
Вид битрейта: Постоянный
Битрейт: 640 Кбит/сек
Канал(ы): 6 канала(ов)
Расположение каналов: Front: L C R, Side: L R, LFE
Частота: 48,0 КГц
Битовая глубина: 16 бит
Метод сжатия: С потерями
Размер потока: 199 Мбайт (3%)
Язык: English

Episode 1: The Key / Ключ
Episode 2: The Clock / Часы
Episode 3: The Comb / Расчёска
Episode 4: The Box / Футляр
Episode 5: The Eye / Глаз
Episode 6: The Prime Object / Исходный Предмет

Днём
Ночью












Поделиться:




реклама партнёра


Вернуться к началу
 Профиль Отправить личное сообщение  
 
   Похожие торренты   Автор   Торрент   Размер 
В этой теме нет новых непрочитанных сообщений. Зов крови / Потерянная / Фэйри / Lost Girl / 5 сезон 1-16 серии из 16 [фэнтези, криминал, 2014] WEB-DLRip, Mvo [NewStudio]

salma3

316 | 297

8.61 ГБ

В этой теме нет новых непрочитанных сообщений. Комната / The Room [триллер, драма, мистика, 2006] DVDRip, Mvo

salma3

80 | 4

1.37 ГБ

В этой теме нет новых непрочитанных сообщений. Комната / Room [Драма, экранизация, 2015] WEB-DLRip, mvo

Dracon

34 | 2

1.37 ГБ

В этой теме нет новых непрочитанных сообщений. Комната с загадками / Riddle Room [ужасы, 2016] WEB-DLRip, Avo

salma3

712 | 47

1.45 ГБ

В этой теме нет новых непрочитанных сообщений. Комната бабочек / The Butterfly Room [Триллер, 2012] HDTVRip 720p, Dub

salma3

63 | 15

2.16 ГБ

В этой теме нет новых непрочитанных сообщений. Запретная комната / The Forbidden Room [комедия, детектив, 2015] HDRip, Dvo

salma3

501 | 48

1.45 ГБ

В этой теме нет новых непрочитанных сообщений. Запретная комната / The Forbidden Room [Комедия, детектив, 2015] HDRip, Dvo

salma3

51 | 3

1.37 ГБ


Начать новую тему Ответить на тему  [ 1 сообщение ] 




Для Мосгорсуда, Роскомнадзора и рекламодателей:: mosgorsud-torrent[собачка]yandex.ru