Торрент файл
скачать торрент магнет ссылка Добавлен: 20 дек 2011, 00:01
Размер: 578.1 МБ
Сидеров: 1
Личеров: 10
Автор

СообщениеДобавлено: 20 дек 2011, 00:01 

Не в сети
Супермодератор
Аватара пользователя
Дата регистрации:
11 апр 2010, 18:10
Спасибо: 5962 / 7
Сообщения: 56765
Комиссар Рекс / Kommissar Rex


Сезон 13 Спецвыпуск: Последний матч (Last match)

Перевод: Профессиональный (многоголосый, закадровый) Fox Crime Russia, cубтитры: отсутствуют
Формат: DVBRip, AVI, XviD, MP3
Страна: Италия, Австрия
Режиссер: Джералд Лигель
Жанр: Детектив
Всего серий: 12
Продолжительность: 01:26:30
Год выпуска: 2009
В ролях: Kaspar Capparoni, Laurence Rupp, Anna Fischer, Martin Weinek, Gerhard Zemann, Wolfram Berger, Serkan Kaya, Gertraud Jesserer

Описание: Вена, июнь 2008. В австрийской столице проходит Чемпионат Европы по футболу. Но в это же время, там работает опасный серийный убийца, убивающий людей, связанных с футболом. Кунц занимается расследованием преступления и нуждается в помощи Рекса. Так Фаббри и Рекс оказываются в Вене после успешного окончания дела в Риме.

Рейтинг на:


Видео: 640x352 (1.82:1), 25 fps, XviD MPEG-4 ~604 kbps avg, 0.11 bit/pixel
Аудио: 48 kHz, MPEG Layer 3, 2 ch, ~320.00 kbps avg


MI General
Format : AVI
Format/Info : Audio Video Interleave
File size : 578 MiB
Duration : 1h 26mn
Overall bit rate : 934 Kbps
Writing application : VirtualDubMod 1.5.10.2 (build 2540/release)
Writing library : VirtualDub build 32817/release
Video
ID : 0
Format : MPEG-4 Visual
Format profile : Advanced Simple@L5
Format settings, BVOP : Yes
Format settings, QPel : No
Format settings, GMC : No warppoints
Format settings, Matrix : Default (H.263)
Muxing mode : Packed bitstream
Codec ID : XVID
Codec ID/Hint : XviD
Duration : 1h 26mn
Bit rate : 605 Kbps
Width : 640 pixels
Height : 352 pixels
Display aspect ratio : 16:9
Frame rate : 25.000 fps
Color space : YUV
Chroma subsampling : 4:2:0
Bit depth : 8 bits
Scan type : Progressive
Bits/(Pixel*Frame) : 0.107
Stream size : 374 MiB (65%)
Writing library : XviD 58
Audio
ID : 1
Format : MPEG Audio
Format version : Version 1
Format profile : Layer 3
Codec ID : 55
Codec ID/Hint : MP3
Duration : 1h 26mn
Bit rate mode : Constant
Bit rate : 320 Kbps
Channel(s) : 2 channels
Sampling rate : 48.0 KHz
Stream size : 198 MiB (34%)
Alignment : Split accross interleaves
Interleave, duration : 40 ms (1.00 video frame)
Interleave, preload duration : 500 ms
Writing library : LAME3.98r
Encoding settings : -m s -V 4 -q 3 -lowpass 20.5















Поделиться:




реклама партнёра


Вернуться к началу
 Профиль Отправить личное сообщение  
 
   Похожие торренты   Автор   Торрент   Размер 
В этой теме нет новых непрочитанных сообщений. Чужой (Сезон 1, Серия 1-24) (Георгий Даниелянц, Вадим Саетгалиев, Петр Забелин) [2014, Боевик, детектив, криминал, DVBRip-AVC]

Враг Нароода

0 | 7

30.72 ГБ

В этой теме нет новых непрочитанных сообщений. Чёрная река (Серии 1-8 из 8) ( Стас Иванов) [2015, Детектив, драма, боевик, DVBRip-AVC]

Враг Нароода

2 | 1

8.63 ГБ

В этой теме нет новых непрочитанных сообщений. Посейдон Рекс / Poseidon Rex [фантастика, боевик, 2013] HDRip, Mvo

salma3

910 | 69

1.37 ГБ

В этой теме нет новых непрочитанных сообщений. Кайл XY / Kyle XY / Сезон: 1-3 / Серии: 1-43 из 43 [Фантастика, драма, детектив, 2006-2009] WEB-DLRip, Mvo [AXN Sci-F]

salma3

2 | 0

30.67 ГБ

В этой теме нет новых непрочитанных сообщений. Они поменялись местами / Model Behavior [комедия, 2000] DVBRip, Mvo

salma3

64 | 4

1.46 ГБ

В этой теме нет новых непрочитанных сообщений. Чужой среди своих [01-16 из 16] [Криминальная драма, 2014] DVBRip-AVC

Dracon

365 | 53

6.64 ГБ

В этой теме нет новых непрочитанных сообщений. Русский характер (Александр Якимчук) [2014, драма, криминал, DVBRip-AVC]

Nickolas3435

1345 | 55

1.41 ГБ


Начать новую тему Ответить на тему  [ 1 сообщение ] 




Для Мосгорсуда, Роскомнадзора и рекламодателей:: mosgorsud-torrent[собачка]yandex.ru