Торрент файл
скачать торрент магнет ссылка Добавлен: 19 дек 2011, 23:56
Размер: 1.94 ГБ
Сидеров: 6
Личеров: 5
Автор

СообщениеДобавлено: 19 дек 2011, 23:56 

Не в сети
Супермодератор
Аватара пользователя
Дата регистрации:
11 апр 2010, 18:10
Спасибо: 5960 / 7
Сообщения: 56765
Притяжению вопреки, 1 сезон 1-13 серии из 13 / Defying Gravity

Перевод: Профессиональный (двухголосый)
Субтитры: Русские (названия эпизодов)
Формат: HDTVRip, MKV, H.264/AVC, AC3
Страна: США, Канада, Великобритания, Германия
Режиссер: Питер Хауит, Фред Гербер, Стурла Гуннарссон, Дэвид Стрейтон
Жанр: Фантастика, драма
Всего серий: 13
Продолжительность: 13 х 00:43
Год выпуска: 2009

В ролях: Рон Ливингстон, Мэлик Йоба, Эндрю Эйрли, Паула Гарсес, Флорентина Ламе, Карен ЛеБланк, Эял Поделл, Дилан Тейлор, Кристина Кокс, Лора Харрис, Ти Олссон, Заф Пару, Максим Рой, Уильям С. Вон, Питер Хауит

Описание: В недалёком будущем восемь астронавтов из 5-ти разных стран отправляются в космическую экспедицию. За 6 лет им предстоит преодолеть 13 миллиардов километров. Под пристальным вниманием жителей родной планеты они тщательно контролируют свои эмоции и чувства, пока не обнаруживают, что реальное назначение их миссии засекречено, в том числе и от них самих.

Рейтинг КиноПоиск.RU: 7.018/10
Рейтинг на IMDB: 7.3/10

Видео: 1280х720 (16:9), 23,976 fps, AVC MPEG-4 (x264) High @ L4.0, ~376 kbps, 0.017 bit/pixel
Аудио: Русский: 48 kHz, AC3 Dolby Digital, 2 h, 112 kbps avg [Профессиональный (двухголосый), студия «Kravec»]


Общее
Уникальный идентификатор: 197863181694718590042929260592496734730 (0x94DB1009F21855F6A57FC95228B1720A)
Полное имя: F:\Defying_Gravity_s01e01-13_\Defying Gravity.s01e01.mkv
Формат: Matroska
Размер файла: 156 Мбайт
Продолжительность: 43 м.
Общий поток: 497 Кбит/сек
Название фильма: Defying Gravity.s01e01 Pilot
Дата кодирования: UTC 2011-04-01 12:05:43
Программа кодирования: mkvmerge v2.4.1 ('Use Me') built on Dec5 2008 18:30:05
Библиотека кодирования: libebml v0.7.7 + libmatroska v0.8.1

Видео
Идентификатор: 1
Формат: AVC
Формат/Информация: Advanced Video Codec
Профиль формата: High@L4.0
Параметр CABAC формата: Да
Параметр ReFrames формата: 3 кадры
Параметры GOP формата: M=1, N=3
Идентификатор кодека: V_MPEG4/ISO/AVC
Продолжительность: 43 м.
Вид битрейта: Переменный
Битрейт: 376 Кбит/сек
Максимальный битрейт: 25,0 Мбит/сек
Ширина: 1280 пикс.
Высота: 720 пикс.
Соотношение сторон: 16:9
Частота кадров: 23,976 кадр/сек
Цветовое пространство: YUV
Подвыборка цветности: 4:2:0
Битовая глубина: 8 бит
Тип развёртки: Прогрессивная
Бит/(Пиксели*Кадры): 0.017
Размер потока: 118 Мбайт (75%)

Аудио
Идентификатор: 2
Формат: AC-3
Формат/Информация: Audio Coding 3
Расширение режима: CM (complete main)
Идентификатор кодека: A_AC3
Продолжительность: 43 м.
Вид битрейта: Постоянный
Битрейт: 112 Кбит/сек
Канал(ы): 2 канала(ов)
Расположение каналов: Front: L R
Частота: 48,0 КГц
Битовая глубина: 16 бит
Метод сжатия: С потерями
Размер потока: 35,1 Мбайт (23%)
Язык: Russian

Текст
Идентификатор: 3
Формат: ASS
Идентификатор кодека: S_TEXT/ASS
Идентификатор кодека/Информация: Advanced Sub Station Alpha
Метод сжатия: Без потерь
Язык: Russian







Поделиться:




реклама партнёра


Вернуться к началу
 Профиль Отправить личное сообщение  
 
   Похожие торренты   Автор   Торрент   Размер 
В этой теме нет новых непрочитанных сообщений. Гравити Фолз / Gravity Falls он / 2 сезон, 1-20 серии из 20 [мультфильм, комедия, детектив, приключения, семейный, 2014] WEB-DLRip, Dub

salma3

1239 | 319

5.04 ГБ

В этой теме нет новых непрочитанных сообщений. Гравити Фолз / / Gravity Falls / 1 сезон, 1-20 серии из 20 [мультфильм, комедия, детектив, приключения, семейный, 2012] WEB-DLRip, Dub

salma3

340 | 111

5.65 ГБ

В этой теме нет новых непрочитанных сообщений. Из-под пера Диккенса / Dickensian [1 сезон 1-17 серии из 20] [драма, 2015] HDTVRip (720p) [Jaskier]

Dracon

0 | 0

7.91 ГБ

В этой теме нет новых непрочитанных сообщений. Зверинец / Zoo / 3 сезон 1-13 серии из 13 [фантастика, триллер, драма, 2017] WEB-DL 720p, Mvo [NewStudio]

salma3

13 | 17

18.85 ГБ

В этой теме нет новых непрочитанных сообщений. Салем / Salem / 3 сезон 1-10 серии из 10 [фантастика, триллер, драма, 2016] WEB-DL 720p, Mvo [LostFilm]

salma3

26 | 51

16.43 ГБ

В этой теме нет новых непрочитанных сообщений. Вне времени / Timeless / 1 сезон 1-14 серии из 16 [Драма, Фантастика, Приключения, 2016] WEB-DL 720p, Mvo [Newstudio]

salma3

0 | 4

20.29 ГБ

В этой теме нет новых непрочитанных сообщений. Кайл XY / Kyle XY / Сезон: 1-3 / Серии: 1-43 из 43 [Фантастика, драма, детектив, 2006-2009] WEB-DLRip, Mvo [AXN Sci-F]

salma3

2 | 0

30.67 ГБ


Начать новую тему Ответить на тему  [ 1 сообщение ] 




Для Мосгорсуда, Роскомнадзора и рекламодателей:: mosgorsud-torrent[собачка]yandex.ru