Торрент файл
скачать торрент магнет ссылка Добавлен: 19 дек 2011, 23:52
Размер: 13.12 ГБ
Сидеров: 19
Личеров: 9
Автор

СообщениеДобавлено: 19 дек 2011, 23:52 

Не в сети
Супермодератор
Аватара пользователя
Дата регистрации:
11 апр 2010, 18:10
Спасибо: 5802 / 7
Сообщения: 56779
Блудливая Калифорния, 4 сезон 1-12 серии / Californication


Перевод: Профессиональный (многоголосый, закадровый); Субтитры: отсутствуют
Формат: HDTV, MKV, AVC, AC3
Страна: США

Режиссер: Cет Манн, Дэвид Фон Энкен, Джон Дал
Жанр: комедия, драма

Всего серий: 12
Продолжительность: 12 х 00:29
Год выпуска: 2011
В ролях: Дэвид Духовны (Hank Moody), Наташа МакЭлхоун(Karen), Мадлен Мартин(Becca Moody), Эван Хэндлер(Charlie Runkle), Памела Адлон(Marcy Runkle), Мадлен Зима (Mia Lewis)

Описание: Талантливый и некогда известный писатель Хэнк Муди переживает творческий кризис. Отсутствие вдохновения он с лихвой компенсирует алкоголем, наркотиками и красивыми женщинами. Подкупающая прямота, чувство юмора и яркая харизма привлекают к нему сердца калифорнийских красавиц. Но его сердце занято — он любящий отец своей 13-летней дочери, и всё ещё влюблён в её маму — свою бывшую подружку…В этом сезоне всё обернется против Муди, в том числе и сам штат Калифорния,но сможет ли Хэнк выстоять под железным натиском закона?!

Рейтинг:

Видео: 1280×720 (16:9), MPEG-4 AVC, High@L4.1, 23.976 fps, ~4655 kbps avg, 0,20 bit/pixel

Аудио #1 RUS: 48 kHz, AC3 Dolby Digital 5.1, 6 ch (Front: L C R, Side: L R, LFE),384 kbps
Аудио #2 ENG: 48 kHz, AC3 Dolby Digital 5.1, 2 ch (L, R), 384 kbps

Уникальный идентификатор : 185816015467818705010347647808837641473 (0x8BCADCE2AA012446AEF89A57233DE501)
Полное имя: \!UPLOAD\Торрент\Californication - Season 4 (NovaFilm) [720p]\californication_s04_e07_[tfile.ru].mkv
Формат: Matroska
Размер файла : 1,09 Гбайт
Продолжительность: 28 м.
Общий поток: 5424 Кбит/сек
Дата кодирования : UTC 2011-03-05 14:47:56
Программа кодирования: mkvmerge v4.5.0 ('Speed of Light') сборка от Feb1 2011 02:10:32
Библиотека кодирования : libebml v1.2.0 + libmatroska v1.1.0

Видео
Идентификатор : 1
Формат: AVC
Формат/Информация: Advanced Video Codec
Профиль формата : High@L4.1
Параметр CABAC формата: Да
Параметр ReFrames формата: 6 кадры
Идентификатор кодека: V_MPEG4/ISO/AVC
Продолжительность: 28 м.
Битрейт : 4655 Кбит/сек
Ширина: 1280 пикс.
Высота: 720 пикс.
Соотношение сторон: 16:9
Частота кадров: 23,976 кадр/сек
Цветовое пространство: YUV
Подвыборка цветности: 4:2:0
Битовая глубина : 8 бит
Тип развёртки: Прогрессивная
Бит/(Пиксели*Кадры): 0.211
Размер потока: 939 Мбайт (84%)
Заголовок: Californication - Season 4, Episode 7: The Recused ("Самоотводы")
Библиотека кодирования: x264 core 112 r1867 22bfd31
Настройки программы: cabac=1 / ref=6 / deblock=1:-3:-3 / analyse=0x3:0x133 / me=umh / subme=6 / psy=1 / psy_rd=1.00:0.00 / mixed_ref=1 / me_range=24 / chroma_me=1 / trellis=2 / 8x8dct=1 / cqm=0 / deadzone=21,11 / fast_pskip=1 / chroma_qp_offset=-4 / threads=3 / sliced_threads=0 / nr=0 / decimate=1 / interlaced=0 / constrained_intra=0 / bframes=3 / b_pyramid=0 / b_adapt=2 / b_bias=0 / direct=3 / weightb=1 / open_gop=0 / weightp=2 / keyint=250 / keyint_min=23 / scenecut=40 / intra_refresh=0 / rc_lookahead=40 / rc=2pass / mbtree=1 / bitrate=4655 / ratetol=1.0 / qcomp=0.60 / qpmin=10 / qpmax=51 / qpstep=4 / cplxblur=20.0 / qblur=0.5 / ip_ratio=1.40 / aq=1:1.00
Язык: English

Аудио #1
Идентификатор : 2
Формат: AC-3
Формат/Информация: Audio Coding 3
Расширение режима: CM (complete main)
Идентификатор кодека: A_AC3
Продолжительность: 28 м.
Вид битрейта : Постоянный
Битрейт: 384 Кбит/сек
Канал(ы): 6 канала(ов)
Расположение каналов: Front: L C R, Side: L R, LFE
Частота: 48,0 КГц
Битовая глубина : 16 бит
Метод сжатия: С потерями
Размер потока : 79,3 Мбайт (7%)
Заголовок: Dolby Digital 5.1 @ 384 kbps
Язык: Russian

Аудио #2
Идентификатор : 3
Формат: AC-3
Формат/Информация: Audio Coding 3
Расширение режима: CM (complete main)
Идентификатор кодека : A_AC3
Продолжительность: 28 м.
Вид битрейта: Постоянный
Битрейт: 384 Кбит/сек
Канал(ы): 2 канала(ов)
Расположение каналов: Front: L R
Частота: 48,0 КГц
Битовая глубина: 16 бит
Метод сжатия : С потерями
Размер потока : 79,3 Мбайт (7%)
Заголовок : Dolby Digital 5.1 @ 384 kbps
Язык : English
Релиз:
Перевод: Dara
Озвучка: студия «Новамедиа»
Внимание! В сериале присутствует ненормативная лексика и сцены с обнаженной натурой!









Внимание! Раздача ведётся путём добавления новых серий; при каждом добавлении создётся новый торрент. Чтобы начать докачку новой серии, пользователям необходимо сделать следующее:
(1) остановить скачивание,
(2) удалить старый торрент у себя из клиента (старые серии удалять не надо),
(3) скачать новый торрент и запустить его у себя в клиенте вместо старого, при этом указать клиенту путь в старую папку куда и должно происходить скачивание новых серий.

Ваш клиент при этом должен произвести хеширование (проверку) старой папки (если не производит сам - помогите ему сделать это) и будет докачивать только те серии, которых у вас ещё нет. Старые серии при этом не удаляются, а продолжают раздаваться!

Eсли вы уже удалили старые серии, то предотвратить повторную закачку старых серий можно, отжав галочку в соответсвующих местах при запуске нового торрента. По возможности, желательно не удалять старые серии как можно дольше, чтобы релизёр не столько продолжал раздавать старые серии, а смог сконцентрироваться на новых.

Добавлена 12-я серия! Четвертый сезон завершен!!![/list]
Люди добрые, не уходите с раздачи... И не забываем ставить автору в авторитет!
Поделиться:




реклама партнёра


Вернуться к началу
 Профиль Отправить личное сообщение  
 
   Похожие торренты   Автор   Торрент   Размер 
В этой теме нет новых непрочитанных сообщений. Блудливая Калифорния / Californication [S07] (Том Капинос) [2014, драма, комедия, HDTVRip | LostFilm]

Nickolas3435

325 | 138

3.93 ГБ

В этой теме нет новых непрочитанных сообщений. Блудливая Калифорния / Californication [S07] (Том Капинос) [2014, драма, комедия, HDTVRip | Jimmy J]

Nickolas3435

80 | 67

4.39 ГБ

В этой теме нет новых непрочитанных сообщений. Блудливая Калифорния / Californication [07x01-10 из 12] (Том Капинос) [2014, драма, комедия, HDTVRip | Jimmy J]

Nickolas3435

43 | 65

3.67 ГБ

В этой теме нет новых непрочитанных сообщений. 24 часа: Проживи еще один день / 24: Live Another Day / 1 сезон 1-9 серии из 12 [боевик, триллер, драма, детектив, 2014] WEB-DLRip, Mvo [NewStudio & NovaFilm]

salma3

1 | 5

4.83 ГБ

В этой теме нет новых непрочитанных сообщений. Добрая ведьма / Good Witch / 1 сезон: 1-10 серии из 10 [фэнтези, драма, комедия, 2015] WEB-DL 720p, Avo

salma3

15 | 8

12.78 ГБ

В этой теме нет новых непрочитанных сообщений. Вероника Марс / Veronica Mars / 1-3 сезоны 1-64 серии из 64 [драма, мелодрама, криминал, детектив, 2004-2007] DVDRip, Mvo+Dvo [НТВ / NovaFilm]

salma3

4 | 2

24.77 ГБ

В этой теме нет новых непрочитанных сообщений. Джеки и Райан / Jackie & Ryan (Эми Канаан Манн) [драма, 2015] WEB-DL 720p, Mvo

Dracon

10 | 2

2.84 ГБ


Начать новую тему Ответить на тему  [ 1 сообщение ] 




Для Мосгорсуда, Роскомнадзора и рекламодателей:: mosgorsud-torrent[собачка]yandex.ru