Торрент файл
скачать торрент магнет ссылка Добавлен: 19 дек 2011, 23:46
Размер: 751.93 МБ
Сидеров: 0
Личеров: 4
Автор

СообщениеДобавлено: 19 дек 2011, 23:46 

Не в сети
Супермодератор
Аватара пользователя
Дата регистрации:
11 апр 2010, 18:10
Спасибо: 5799 / 7
Сообщения: 56779
Взлом, 1 сезон 2 серия / Breaking In

Перевод: Профессиональный (двухголосый , закадровый) Кубик в Кубе, cубтитры: отсутствуют
Формат: WEB-DL, MKV, H.264, AC3
Страна: США
Режиссер: Сет Гордон
Жанр: комедия
Всего серий: 7
Продолжительность: 00:21:31
Год выпуска: 2011
В ролях: Одетт Юстман, Кристиан Слэйтер, Брэт Харрисон, Альфонсо Маколи, Майкл Розенбаум
Описание: BREAKING IN это не совсем обычная получасовая комедия про высоко-качественую техническую фирму по обеспечению безопасности, которая принимает экстремальные и очень часто сомнительные меры для того что бы их услуги продавались успешнее. Созданая Адамом Голдбергом и Сэтом Гордоном, команда компьютерных талантливых чудаков гениев, работает на мастера манипуляции.
Название фирмы - Contra Security (Контра Секьюрити), корпоративный ответ Америки на известный сериал "Команда А". Фирму возглавляет Оз (Кристиан Слэйтер), человек тайны и мастер манипуляций. Команда фирмы включает в себя: Мэлани(Одетт Юстман), которая специализируется на вскрывании замков, безопасном взломе и разбивании сердец; а также Кэша (Альфонсо МакОли), приколист который специализируется на стратегии, логистике и профессиональным офисным шалостям, которые мог-бы придумать только полный безумец.
У Оза новобранец, вырваный прямо из коледжа, милый и очаровательный Кэмерон Прайс ( Брэт Харрисон). К сожалению для Кэмирона, взлом лучших систем безопасности нааааамного легче, чем найти общий язык с его сотрудниками. Между подавляющей сексуальностью Мэлани и дедовщиной Кэша, у Кэмерона больше чем пару препятствий для того что бы стать полноправным членом лучшей команды по безопасности.

Рейтинг на:

Перевод:

Видео: 1280x720 (16:9) , MPEG4 AVC, High@L3.1, 23,976 fps, 3954 kbps avg, 0.179 bit/pixel
Аудио Rus: 48 kHz, AC3, 6 ch (Front: L C R, Side: L R, LFE), 448 kbps avg
Аудио Eng: 48 kHz, AC3, 6 ch (Front: L C R, Side: L R, LFE), 384 kbps avg



1 серии







Общее
Уникальный идентификатор: 253600518504892304100125107830298405815 (0xBEC9AEE97A023F069B93B031A49E6BB7)
Полное имя: F:\ТОРРЕНТ\Новая папка (2)\breaking_in_s01_e02_[tfile.ru].mkv
Формат: Matroska
Размер файла: 752 Мбайт
Продолжительность: 21 м.
Общий поток: 4883 Кбит/сек
Дата кодирования: UTC 2011-04-17 16:57:28
Программа кодирования: mkvmerge v3.4.0 ('Rapunzel') сборка от May 15 2010 09:38:20
Библиотека кодирования: libebml v0.8.0 + libmatroska v0.9.0

Видео
Идентификатор: 1
Формат: AVC
Формат/Информация: Advanced Video Codec
Профиль формата: High@L3.1
Параметр CABAC формата: Нет
Параметр ReFrames формата: 2 кадры
Параметры GOP формата: M=2, N=24
Идентификатор кодека: V_MPEG4/ISO/AVC
Продолжительность: 21 м.
Битрейт: 3954 Кбит/сек
Ширина: 1280 пикс.
Высота: 720 пикс.
Соотношение сторон: 16:9
Частота кадров: 23,976 кадр/сек
Цветовое пространство: YUV
Подвыборка цветности: 4:2:0
Битовая глубина: 8 бит
Тип развёртки: Прогрессивная
Бит/(Пиксели*Кадры): 0.179
Размер потока: 609 Мбайт (81%)
Заголовок: Breaking In - 01x02 - 'Tis Better to Have Loved and Flossed
Язык: English
Основные цвета: BT.709-5, BT.1361, IEC 61966-2-4, SMPTE RP177
Характеристики трансфера: BT.709-5, BT.1361
Коэффициенты матрицы: BT.709-5, BT.1361, IEC 61966-2-4 709, SMPTE RP177

Аудио #1
Идентификатор: 2
Формат: AC-3
Формат/Информация: Audio Coding 3
Расширение режима: CM (complete main)
Идентификатор кодека: A_AC3
Продолжительность: 21 м.
Вид битрейта: Постоянный
Битрейт: 448 Кбит/сек
Канал(ы): 6 канала(ов)
Расположение каналов: Front: L C R, Side: L R, LFE
Частота: 48,0 КГц
Битовая глубина: 16 бит
Метод сжатия: С потерями
Размер потока: 69,0 Мбайт (9%)
Язык: Russian

Аудио #2
Идентификатор: 3
Формат: AC-3
Формат/Информация: Audio Coding 3
Расширение режима: CM (complete main)
Идентификатор кодека: A_AC3
Продолжительность: 21 м.
Вид битрейта: Постоянный
Битрейт: 384 Кбит/сек
Канал(ы): 6 канала(ов)
Расположение каналов: Front: L C R, Side: L R, LFE
Частота: 48,0 КГц
Битовая глубина: 16 бит
Метод сжатия: С потерями
Размер потока: 59,1 Мбайт (8%)
Язык: English

Текст #1
Идентификатор: 4
Формат: UTF-8
Идентификатор кодека: S_TEXT/UTF8
Идентификатор кодека/Информация: UTF-8 Plain Text
Язык: Russian

Текст #2
Идентификатор: 5
Формат: UTF-8
Идентификатор кодека: S_TEXT/UTF8
Идентификатор кодека/Информация: UTF-8 Plain Text
Язык: English








Поделиться:




реклама партнёра


Вернуться к началу
 Профиль Отправить личное сообщение  
 
   Похожие торренты   Автор   Торрент   Размер 
В этой теме нет новых непрочитанных сообщений. Взлом и проникновение / Вторжение / Breaking and Entering [драма, мелодрама, 2006] HDRip, Dvo

salma3

31 | 2

1.46 ГБ

В этой теме нет новых непрочитанных сообщений. Уходя в отрыв / Breaking Away [драма, спорт, комедия, 1979] BDRip 720p, Mvo+Avo+Sub

salma3

8 | 3

5.46 ГБ

В этой теме нет новых непрочитанных сообщений. Во все тяжкие / Breaking Bad( Адам Бернштейн, Брайан Крэнстон) (Сезон 1-4, Серия 1-62 из 62) [2008-2013, Драма / Триллер / Детектив, Криминал, ВDRip-AVC 1080p ] [MVO] [LostFilm]

Nikolai.Baranov

12 | 22

174.56 ГБ

В этой теме нет новых непрочитанных сообщений. Штамм / The Strain (Сезон 1, Серия 1-13 из 13) (Гильермо Дель Торо, Дэвид Семел, Кит Гордон) [2014, Ужасы, фантастика, драма, вампиры, экранизация, WEBDLRip-AVC 1080р] [MVO] [AlexFilm]

Враг Нароода

28 | 34

31.95 ГБ

В этой теме нет новых непрочитанных сообщений. Училки / Teachers [1 сезон: 1 серия из 10] [Комедия, 2016] WEB-DL 720p [BaibaKo]

Dracon

8 | 1

724.99 МБ

В этой теме нет новых непрочитанных сообщений. Последний из Магикян [Сезон 3 серия 29-40 из 40] [комедия, 2013-2014] WEB-DL 720p

Dracon

189 | 35

5.49 ГБ

В этой теме нет новых непрочитанных сообщений. Грейс и Фрэнки / Grace and Frankie [S01] (Тим Киркби, Мигель Артета, Брайан Гордон) [2015, Тим Киркби, Мигель Артета, Брайан Гордон, WEBRip 720p | ViruseProject]

Nickolas3435

76 | 53

8.44 ГБ


Начать новую тему Ответить на тему  [ 1 сообщение ] 




Для Мосгорсуда, Роскомнадзора и рекламодателей:: mosgorsud-torrent[собачка]yandex.ru