Торрент файл
скачать торрент магнет ссылка Добавлен: 19 дек 2011, 23:42
Размер: 8.02 ГБ
Сидеров: 0
Личеров: 10
Автор

СообщениеДобавлено: 19 дек 2011, 23:42 

Не в сети
Супермодератор
Аватара пользователя
Дата регистрации:
11 апр 2010, 18:10
Спасибо: 5803 / 7
Сообщения: 56779
Тайны темных джунглей, 1 сезон 6 серий из 6 / Misteri della giungla nera



Перевод: Профессиональный (многоголосый, закадровый), cубтитры: отсутствуют
Формат: VHSRip, DVD Video, MPEG2, AC3
Страна: Германия, Франция, Италия, Испания, Австрия
Режиссер: Кевин Коннор
Жанр: Приключения, мелодрама
Всего серий: 6
Продолжительность: 6 х 00:57
Год выпуска: 1991

В ролях: Стейси Кич, Вирна Лизи, Джон Рис-Дэвис, Кабир Беди, Гюнтер Мария Халмер, Корнелия Хэйес О`Херлихи, Габриель Анвар, Энтони Калф, Эмержит Дью

Описание: К офицеру, несколько лет живущему в Индии, приезжают его жена и две дочери. Увидев одну из них, местный раджа решает, что она послана богами для спасения его племени — самого жестокого и кровожадного в стране — и должна быть принесена в жертву…

Рейтинг на :

Видео: 720x576 (PAL 4/3), MPEG-2 Video, 25.000 fps, 3 542 kbps avg, 0.342 bit/pixel]
Аудио: 48 kHz, AC3, 2 (L, R) ch, 256 kbps avg]

General
Complete name: D:\Mysteries of the darkjungle\1-3\VIDEO_TS\VTS_01_1.VOB
Format: MPEG-PS
File size: 1 016 MiB
Duration: 35mn 55s
Overall bit rate: 3 955 Kbps

Video
ID: 224 (0xE0)
Format: MPEG Video
Format version: Version 2
Format profile: Main@Main
Format settings, Matrix: Default
Duration: 35mn 55s
Bit rate mode: Variable
Bit rate: 3 542 Kbps
Nominal bit rate: 9 400 Kbps
Width: 720 pixels
Height: 576 pixels
Display aspect ratio: 4/3
Frame rate: 25.000 fps
Standard: PAL
Colorimetry: 4:2:0
Scan type: Interlaced
Scan order: Top Field First
Bits/(Pixel*Frame): 0.342
Stream size: 910 MiB (90%)

Audio
ID: 128 (0x80)
Format: AC-3
Format/Info: Audio Coding 3
Duration: 35mn 54s
Bit rate mode: Constant
Bit rate: 256 Kbps
Channel(s): 2 channels
Channel positions: L R
Sampling rate: 48.0 KHz
Video delay: -80ms
Stream size: 65.8 MiB (6%)

Menu
Format: DVD-Video










Поделиться:




реклама партнёра


Вернуться к началу
 Профиль Отправить личное сообщение  
 
   Похожие торренты   Автор   Торрент   Размер 
В этой теме нет новых непрочитанных сообщений. Самоа – королева джунглей / Samoa, regina della giungla [мелодрама, криминал, приключения, 1968] DVDRip, Avo+Sub

salma3

306 | 41

1.37 ГБ

В этой теме нет новых непрочитанных сообщений. Mutilanova - Nera Lux [2013, Symphonic Black Metal, MP3]

PriZraK

0 | 1

157.15 МБ

В этой теме нет новых непрочитанных сообщений. Степная орда / I Predoni della steppa [Боевик, драма, приключения, 1964] DVDRip, Mvo

salma3

19 | 7

1.37 ГБ

В этой теме нет новых непрочитанных сообщений. Вскрытые: Файлы о пришельцах / Unsealed: Alien Files [s01-02] (Кевин Лоу) [2012-2013, документальный, уфология, тайны и загадки, SATRip]

Nickolas3435

869 | 323

8.85 ГБ

В этой теме нет новых непрочитанных сообщений. Шина – королева джунглей / Sheena [боевик, приключения, 1984] DVDRip, Mvo [ОРТ]

salma3

40 | 3

1.45 ГБ

В этой теме нет новых непрочитанных сообщений. Не из этого мира / Not of This World [ужасы, фантастика, 1991] VHSRip, Dvo+Sub

salma3

45 | 9

1.37 ГБ

В этой теме нет новых непрочитанных сообщений. Джордж из джунглей / George of the Jungle [комедия, приключения, семейный, 1997] Web-DL 720p, Mvo+Sub

salma3

8 | 3

2.75 ГБ


Начать новую тему Ответить на тему  [ 1 сообщение ] 




Для Мосгорсуда, Роскомнадзора и рекламодателей:: mosgorsud-torrent[собачка]yandex.ru