Торрент файл
скачать торрент магнет ссылка Добавлен: 19 дек 2011, 23:41
Размер: 1.04 ГБ
Сидеров: 0
Личеров: 4
Автор

СообщениеДобавлено: 19 дек 2011, 23:41 

Не в сети
Супермодератор
Аватара пользователя
Дата регистрации:
11 апр 2010, 18:10
Спасибо: 5963 / 7
Сообщения: 56762
Тринадцатый, 1 сезон 1 серия / XIII


Пилот / Pilot

Перевод: Профессиональный (многоголосый, закадровый), Субтитры: отсутствуют
Формат: HDTV, MKV, H.264/AVC, AC3
Страна: Канада, Франция
Режиссер: Duane Clark, Alain Tasma
Жанр: Боевик
Всего серий: 13
Продолжительность: 00:43:22
Год выпуска: 2011

В ролях: Stuart Townsend, Virginie Ledoyen, Greg Bryk, Stephen McHattie, Paulino Nunes, Aisha Tyler, Caterina Murino и др.

Описание: Первая в США женщина-президент убита метким снайперским выстрелом во время выступления в День ветеранов. Убийца не найден. Вскоре после этого в лесу находят таинственного парашютиста. Он ранен и не помнит абсолютно ничего из своего прошлого. На его груди загадочная татуировка — «XIII». Теперь молодому человеку предстоит понять кто он такой и попытаться раскрыть правительственный заговор...
Продолжение минисериала XIII вышедшего в 2008 году.


Рейтинг на:
[/field]

Видео: 1280x720 (16:9), MPEG4/ISO/AVC, 25 fps, 3224 Kbps, 0.140 bit/pixel
Аудио: 48,0 kHz, AC-3,2 ch, Front: L, R, 192 kbps avg

Доп. информация:

Релиз:


Над релизом работали:
Перевод: helter_skelter
Подготовка видео: Alucard
Озвучка: +
Монтаж и работа со звуком: jugin

Общее
Уникальный идентификатор: 253574694781091785790037266512233729127 (0xBEC4B5B4422A8883A9436E65C1ED8C67)
Полное имя: C:\Documents and Settings\Admin\Рабочий стол\720р\XIII_S01E01_[tfile.ru].mkv
Формат: Matroska
Размер файла: 1,04 Гбайт
Продолжительность: 43 м.
Общий поток: 3418 Кбит/сек
Дата кодирования: UTC 2011-04-27 16:37:24
Программа кодирования: mkvmerge v2.9.0 ('Moanin'') built on May 22 2009 17:46:31
Библиотека кодирования: libebml v0.7.7 + libmatroska v0.8.1

Видео
Идентификатор: 1
Формат: AVC
Формат/Информация: Advanced Video Codec
Профиль формата: High@L4.1
Параметр CABAC формата: Да
Параметр ReFrames формата: 5 кадров
Идентификатор кодека: V_MPEG4/ISO/AVC
Продолжительность: 43 м.
Битрейт: 3224 Кбит/сек
Ширина: 1280 пикс.
Высота: 720 пикс.
Соотношение сторон: 16:9
Частота кадров: 25,000 кадр/сек
Цветовое пространство: YUV
Подвыборка цветности: 4:2:0
Битовая глубина: 8 бит
Тип развёртки: Прогрессивная
Бит/(Пиксели*Кадры): 0.140
Размер потока: 980 Мбайт (92%)
Библиотека кодирования: x264 core 115 r1937 aa21558
Настройки программы: cabac=1 / ref=5 / deblock=1:0:0 / analyse=0x3:0x113 / me=umh / subme=7 / psy=1 / psy_rd=1.00:0.00 / mixed_ref=1 / me_range=16 / chroma_me=1 / trellis=1 / 8x8dct=1 / cqm=0 / deadzone=21,11 / fast_pskip=0 / chroma_qp_offset=-2 / threads=12 / sliced_threads=0 / nr=0 / decimate=1 / interlaced=0 / bluray_compat=0 / constrained_intra=0 / bframes=3 / b_pyramid=2 / b_adapt=1 / b_bias=0 / direct=1 / weightb=1 / open_gop=0 / weightp=2 / keyint=250 / keyint_min=25 / scenecut=40 / intra_refresh=0 / rc_lookahead=40 / rc=2pass / mbtree=1 / bitrate=3224 / ratetol=1.0 / qcomp=0.60 / qpmin=0 / qpmax=69 / qpstep=4 / cplxblur=20.0 / qblur=0.5 / ip_ratio=1.40 / aq=1:1.00
Язык: French

Аудио
Идентификатор: 2
Формат: AC-3
Формат/Информация: Audio Coding 3
Расширение режима: CM (complete main)
Идентификатор кодека: A_AC3
Продолжительность: 43 м.
Вид битрейта: Постоянный
Битрейт: 192 Кбит/сек
Каналы: 2 канала
Расположение каналов: Front: L R
Частота: 48,0 КГц
Битовая глубина: 16 бит
Метод сжатия: С потерями
Размер потока: 59,6 Мбайт (6%)
Язык: Russian









Поделиться:




реклама партнёра


Вернуться к началу
 Профиль Отправить личное сообщение  
 
   Похожие торренты   Автор   Торрент   Размер 
В этой теме нет новых непрочитанных сообщений. Девять дней зимы / Neuf jours en hiver (Ален Тасма / Alain Tasma) [2015г., Франция, драма, экранизация, HDTVRip] sub

Alfredovich

1 | 0

1.4 ГБ

В этой теме нет новых непрочитанных сообщений. Последствия / Aftermath / 1 сезон 1-13 серия из 13 [Фантастика, 2016] HDTV 720р, Dvo [NEON Studio]

salma3

33 | 51

12.42 ГБ

В этой теме нет новых непрочитанных сообщений. Флэш / The Flash / 4 сезон 1-06 серия из 23 [Фантастика, боевик, драма, 2017] WEB-DL 720р, Mvo [LostFilm]

salma3

0 | 0

7.04 ГБ

В этой теме нет новых непрочитанных сообщений. Легенды завтрашнего дня / Legends of Tomorrow / 3 сезон 1-04 серия из 17 [Фантастика, боевик, 2017] WEB-DL 720р, Mvo [LostFilm]

salma3

0 | 0

5.81 ГБ

В этой теме нет новых непрочитанных сообщений. Стрелок / Shooter [01х01-03 из 13] (боевик, драма, 2016) HDTV 720р | NEON Studio

marya111

30 | 62

2.61 ГБ

В этой теме нет новых непрочитанных сообщений. Стрела / Arrow [03x01-09] (Дэвид Баррет, Дэвид Наттер)[2014, фантастика, боевик, драма, детектив, приключения, HDTV 720р | Kerob]

Nickolas3435

50 | 94

9.28 ГБ

В этой теме нет новых непрочитанных сообщений. Стрела / Arrow [03x01-08] (Дэвид Баррет, Дэвид Наттер) [2014, фантастика, боевик, драма, детектив, приключения, HDTV 720р | Kerob]

Nickolas3435

22 | 77

8.25 ГБ


Начать новую тему Ответить на тему  [ 1 сообщение ] 




Для Мосгорсуда, Роскомнадзора и рекламодателей:: mosgorsud-torrent[собачка]yandex.ru