Торрент файл
скачать торрент магнет ссылка Добавлен: 19 дек 2011, 23:35
Размер: 1.32 ГБ
Сидеров: 6
Личеров: 6
Автор

СообщениеДобавлено: 19 дек 2011, 23:35 

Не в сети
Супермодератор
Аватара пользователя
Дата регистрации:
11 апр 2010, 18:10
Спасибо: 5801 / 7
Сообщения: 56779
Дневники Вампира, 2 сезон 21 серия / The Vampire Diaries


И взойдет солнце / The Sun Also Rises

Перевод: Профессиональный (многоголосый, закадровый), Субтитры: отсутствуют
Формат: WEB-DL, MKV, H.264\AVC, AC3
Страна: США
Режиссер: Маркос Сига, Дж. Миллер Тобин, Кевин Брэй
Жанр: Ужасы, Фэнтези, Мелодрама, Драма
Всего серий: 22
Продолжительность: 00:42:38
Год выпуска: 2010-2011

В ролях: Нина Добрев, Пол Уэсли, Иен Сомерхолдер, Стивен Р. МакКуин, Катерина Грэхэм, Кэндис Аккола, Зак Рериг, Сара Каннинг, Майкл Тревино, Мэттью Дэвис, Стивен Р. МакКуин, Бенджамин Эйрс, Стив Белфорд, Кайла Юэлл, Марси Т. Хаус

Описание: Второй сезон начинается с того момента, когда в конце прошлого сезона Елена возвращается домой. Она обнаруживает тот ужас, который произошел с дядей Джоном и узнает правду о судьбе Джереми. После неловкой беседы с Еленой о ночных событиях, Деймон, наконец, понимает, что Кэтрин вернулась. Прибытие Кэтрин в Мистик Фоллс заставляет Стефана и Деймона выяснять, что она хочет, почему она вернулась и сколько угрозы таит в себе ее неожиданное возвращение для людей, которых они любят. Тем временем, пока Тайлер приходит в себя от таинственной смерти отца, в семью возвращается очаровательный и загадочный дядя, Мэйсон Локвуд...

Рейтинг на:


Видео: 1280x720 (16:9), MPEG4/ISO/AVC, 23,976 fps, 4041 Kbps, 0.183 bit/pixel
Аудио: 48,0 kHz, AC-3,2 ch, Front: L, R, 384 kbps avg

Доп. информация:

Релиз:


Общее
Уникальный идентификатор: 220238814855125379124900754926289166799 (0xA5B073ED9F67764E9CCF1220E37621CF)
Полное имя: C:\Documents and Settings\Admin\Рабочий стол\720р\The_Vampire_Diaries_S02E21_[tfile.ru].mkv
Формат: Matroska
Размер файла: 1,31 Гбайт
Продолжительность: 42 м.
Общий поток: 4428 Кбит/сек
Дата кодирования: UTC 2011-04-30 14:20:06
Программа кодирования: mkvmerge v3.2.0 ('Beginnings') built on Feb 12 2010 16:46:17
Библиотека кодирования: libebml v0.7.9 + libmatroska v0.8.1

Видео
Идентификатор: 1
Формат: AVC
Формат/Информация: Advanced Video Codec
Профиль формата: High@L3.1
Параметр CABAC формата: Да
Параметр ReFrames формата: 4 кадра
Параметры GOP формата: M=2, N=4
Идентификатор кодека: V_MPEG4/ISO/AVC
Продолжительность: 42 м.
Битрейт: 4041 Кбит/сек
Ширина: 1280 пикс.
Высота: 720 пикс.
Соотношение сторон: 16:9
Частота кадров: 23,976 кадр/сек
Цветовое пространство: YUV
Подвыборка цветности: 4:2:0
Битовая глубина: 8 бит
Тип развёртки: Прогрессивная
Бит/(Пиксели*Кадры): 0.183
Размер потока: 1,17 Гбайт (89%)
Библиотека кодирования: x264 core 107 r1745 4785e8e
Настройки программы: cabac=1 / ref=3 / deblock=1:0:0 / analyse=0x3:0x113 / me=hex / subme=7 / psy=1 / psy_rd=1.00:0.00 / mixed_ref=1 / me_range=16 / chroma_me=1 / trellis=1 / 8x8dct=1 / cqm=0 / deadzone=21,11 / fast_pskip=1 / chroma_qp_offset=-2 / threads=4 / sliced_threads=0 / nr=0 / decimate=1 / interlaced=0 / constrained_intra=0 / bframes=3 / b_pyramid=2 / b_adapt=1 / b_bias=0 / direct=1 / weightb=1 / open_gop=0 / weightp=2 / keyint=250 / keyint_min=25 / scenecut=40 / intra_refresh=0 / rc_lookahead=40 / rc=2pass / mbtree=1 / bitrate=4041 / ratetol=1.0 / qcomp=0.60 / qpmin=10 / qpmax=51 / qpstep=4 / cplxblur=20.0 / qblur=0.5 / ip_ratio=1.40 / aq=1:1.00

Аудио
Идентификатор: 2
Формат: AC-3
Формат/Информация: Audio Coding 3
Расширение режима: CM (complete main)
Идентификатор кодека: A_AC3
Продолжительность: 42 м.
Вид битрейта: Постоянный
Битрейт: 384 Кбит/сек
Каналы: 2 канала
Расположение каналов: Front: L R
Частота: 48,0 КГц
Битовая глубина: 16 бит
Метод сжатия: С потерями
Размер потока: 116 Мбайт (9%)


1 сезон
http://tfile.ru/forum/viewtopic.php?t=254634 [LostFilm]

2 сезон

1-21 серии http://tfile.ru/forum/viewtopic.php?t=357691 [Kubik v Kube]
1-21 серии http://tfile.ru/forum/viewtopic.php?t=356074 [LostFilm]
1-9 серии http://tfile.ru/forum/viewtopic.php?t=360454 [LostFilm] 720р
12 серия http://tfile.ru/forum/viewtopic.php?t=407234 [LostFilm] 720р
13 серия http://tfile.ru/forum/viewtopic.php?t=410164 [LostFilm] 720р
14 серия http://tfile.ru/forum/viewtopic.php?t=412621 [LostFilm] 720р
15 серия http://tfile.ru/forum/viewtopic.php?t=415699 [LostFilm] 720р
16 серия http://tfile.ru/forum/viewtopic.php?t=418396 [LostFilm] 720р
17 серия http://tfile.ru/forum/viewtopic.php?t=434729 [LostFilm] 720р
18 серия http://tfile.ru/forum/viewtopic.php?t=438319 [LostFilm] 720р
19 серия http://tfile.ru/forum/viewtopic.php?t=439235 [LostFilm] 720р

[/field]







Поделиться:




реклама партнёра


Вернуться к началу
 Профиль Отправить личное сообщение  
 
   Похожие торренты   Автор   Торрент   Размер 
В этой теме нет новых непрочитанных сообщений. Дневники Вампира / The Vampire Diaries / 7 сезон 1-22 серии из 22 (Маркос Сига, Роб Харди, Дэвид Фон Энкен, Дж. Миллер Тобин) [2015, ужасы, фэнтези, триллер, драма, мелодрама, детектив, WEB-DLRip | LostFilm]

Dracon

316 | 265

8.29 ГБ

В этой теме нет новых непрочитанных сообщений. Дневники Вампира / The Vampire Diaries [06x01-11] (Маркос Сига, Элизабет Аллен)[2014, Ужасы, фэнтези, драма, мелодрама, HDTVRip | ColdFilm]

Nickolas3435

107 | 330

4.67 ГБ

В этой теме нет новых непрочитанных сообщений. Дневники Вампира / The Vampire Diaries [06x01-15] (Маркос Сига, Элизабет Аллен) [2014, Ужасы, фэнтези, драма, мелодрама, HDTVRip | ColdFilm]

Nickolas3435

224 | 529

6.27 ГБ

В этой теме нет новых непрочитанных сообщений. Дневники Вампира / The Vampire Diaries [06x01-05] (Маркос Сига, Элизабет Аллен) [2014, Ужасы, фэнтези, драма, мелодрама, HDTVRip | ColdFilm]

Nickolas3435

249 | 448

2.19 ГБ

В этой теме нет новых непрочитанных сообщений. Дневники Вампира / The Vampire Diaries [06x01-12] (Маркос Сига, Элизабет Аллен) [2014, Ужасы, фэнтези, драма, мелодрама, HDTVRip | ColdFilm]

Nickolas3435

51 | 206

5.06 ГБ

В этой теме нет новых непрочитанных сообщений. Дневники Вампира / The Vampire Diaries [06x01-09] (Маркос Сига, Элизабет Аллен) [2014, Ужасы, фэнтези, драма, мелодрама, HDTVRip | ColdFilm]

Nickolas3435

204 | 509

3.81 ГБ

В этой теме нет новых непрочитанных сообщений. Дневники Вампира / The Vampire Diaries [06x01-04] (Маркос Сига, Элизабет Аллен) [2014, Ужасы, фэнтези, драма, мелодрама, HDTVRip | ColdFilm]

Nickolas3435

525 | 873

1.79 ГБ


Начать новую тему Ответить на тему  [ 1 сообщение ] 




Для Мосгорсуда, Роскомнадзора и рекламодателей:: mosgorsud-torrent[собачка]yandex.ru