Торрент файл
скачать торрент магнет ссылка Добавлен: 19 дек 2011, 23:27
Размер: 1.22 ГБ
Сидеров: 0
Личеров: 5
Автор

СообщениеДобавлено: 19 дек 2011, 23:27 

Не в сети
Супермодератор
Аватара пользователя
Дата регистрации:
11 апр 2010, 18:10
Спасибо: 5799 / 7
Сообщения: 56779
Камелот, 1 сезон 7 серия / Camelot


Долгая ночь / The Long Night

Перевод: Профессиональный (многоголосый, закадровый), Субтитры: отсутствуют
Формат: HDTV, MKV, H.264\AVC, AC3
Страна: США, Канада, Великобритания, Ирландия
Режиссер: Микаэл Саломон, Киаран Доннелли, Джереми Подесва
Жанр: Фэнтези, драма, история
Всего серий: 10
Продолжительность: 00:49:06
Год выпуска: 2011

В ролях: Джейми Кэмпбелл Бауэр, Тэмсин Эгертон, Джозеф Файнс, Клэр Форлани, Ева Грин, Питер Муни, Diarmaid Murtagh, Клайв Стэнден, Филип Уинчестер, Шинед Кьюсак

Описание: После внезапной смерти короля Утера, хаос грозит поглотить Великобританию. Волшебник Мерлин видит видение с темным будущим, он берется за молодого и стремительного Артура, неизвестного сына Утера и его наследника, который рос как простолюдин. Но холодная и амбициозная сводная сестра Артура Моргана, будет сражаться с ним до самого конца, вызывая неестественные силы, что бы претендовать на корону в этой эпической битве за власть. В эти темные времена действительно нужен новый король, Гвиневра, супруга Артура, будет ярким светом в суровом мире Артура. Столкнувшись с глубокими моральными решениями, и задачей объединения царства, которое сломанно войной и погруженное в обман, Артур пройдет путь за гранью воображения.

Рейтинг на:


Видео: 1280x720 (16/9), MPEG4 AVC, High@L3.1, 23,976 fps, 2798 kbps avg, 0.127 bit/pixel
Аудио RUS: 48,0 kHz, AC-3, 6 ch, Front: (L,C,R,l,r) + LFE ch, 384 kbps avg
Аудио ENG: 48,0 kHz, AC-3, 6 ch, Front: (L,C,R,l,r) + LFE ch, 384 kbps avg

Доп. информация:

Релиз:


Над релизом работали:
Перевод: opel (mitrakov)
Адаптация: SLRU
Озвучка: Anna_Smile, Алексей Кузнецов и Trinitron

Общее
Уникальный идентификатор: 173741235142053065985079464933736008672 (0x82B55840743B12C79583603206D34BE0)
Полное имя: C:\Documents and Settings\Admin\Рабочий стол\720р\Kamelot_S01E07_[tfile.ru].mkv
Формат: Matroska
Размер файла: 1,22 Гбайт
Продолжительность: 49 м.
Общий поток: 3569 Кбит/сек
Название фильма: BaibaKo.tv presents - Камелот 1х07 Долгая ночь
Дата кодирования: UTC 2011-05-22 13:49:24
Программа кодирования: mkvmerge v3.4.0 ('Rapunzel') сборка от May 15 2010 09:38:20
Библиотека кодирования: libebml v0.8.0 + libmatroska v0.9.0

Видео
Идентификатор: 1
Формат: AVC
Формат/Информация: Advanced Video Codec
Профиль формата: High@L3.1
Параметр CABAC формата: Да
Параметр ReFrames формата: 3 кадра
Идентификатор кодека: V_MPEG4/ISO/AVC
Продолжительность: 49 м.
Битрейт: 2798 Кбит/сек
Ширина: 1280 пикс.
Высота: 720 пикс.
Соотношение сторон: 16:9
Частота кадров: 23,976 кадр/сек
Цветовое пространство: YUV
Подвыборка цветности: 4:2:0
Битовая глубина: 8 бит
Тип развёртки: Прогрессивная
Бит/(Пиксели*Кадры): 0.127
Размер потока: 959 Мбайт (76%)
Библиотека кодирования: x264 core 88 r1471 1144615
Настройки программы: cabac=1 / ref=3 / deblock=1:0:0 / analyse=0x3:0x113 / me=hex / subme=6 / psy=1 / psy_rd=1.00:0.00 / mixed_ref=0 / me_range=16 / chroma_me=1 / trellis=1 / 8x8dct=1 / cqm=0 / deadzone=21,11 / fast_pskip=1 / chroma_qp_offset=-2 / threads=30 / sliced_threads=0 / nr=0 / decimate=1 / mbaff=0 / constrained_intra=0 / bframes=6 / b_pyramid=1 / b_adapt=2 / b_bias=0 / direct=1 / wpredb=1 / wpredp=0 / keyint=240 / keyint_min=24 / scenecut=40 / intra_refresh=0 / rc_lookahead=40 / rc=2pass / mbtree=1 / bitrate=2798 / ratetol=1.0 / qcomp=0.60 / qpmin=10 / qpmax=51 / qpstep=4 / cplxblur=20.0 / qblur=0.5 / ip_ratio=1.40 / aq=1:1.00
Язык: English

Аудио #1
Идентификатор: 2
Формат: AC-3
Формат/Информация: Audio Coding 3
Расширение режима: CM (complete main)
Идентификатор кодека: A_AC3
Продолжительность: 49 м.
Вид битрейта: Постоянный
Битрейт: 384 Кбит/сек
Каналы: 6 каналов
Расположение каналов: Front: L C R, Side: L R, LFE
Частота: 48,0 КГц
Битовая глубина: 16 бит
Метод сжатия: С потерями
Размер потока: 135 Мбайт (11%)
Заголовок: Rus BaibaKo.tv DD5.1
Язык: Russian

Аудио #2
Идентификатор: 3
Формат: AC-3
Формат/Информация: Audio Coding 3
Расширение режима: CM (complete main)
Идентификатор кодека: A_AC3
Продолжительность: 49 м.
Вид битрейта: Постоянный
Битрейт: 384 Кбит/сек
Каналы: 6 каналов
Расположение каналов: Front: L C R, Side: L R, LFE
Частота: 48,0 КГц
Битовая глубина: 16 бит
Метод сжатия: С потерями
Размер потока: 135 Мбайт (11%)
Заголовок: Eng DD5.1
Язык: English







Поделиться:




реклама партнёра


Вернуться к началу
 Профиль Отправить личное сообщение  
 
   Похожие торренты   Автор   Торрент   Размер 
В этой теме нет новых непрочитанных сообщений. Викинги / Vikings (сезон 1-2, серия 1-19 из 19) (Киаран Доннелли, Йохан Ренк, Кен Джиротти) [2013-2014, Историческая драма, приключения, боевик, викинги, WEBDLRip-AVC 1080р] [DD5.1] [MVO] [NewStudio]

Baranov 55

17 | 8

34.92 ГБ

В этой теме нет новых непрочитанных сообщений. Викинги / Vikings [Season 3 episode 7 of 10] (Йохан Ренк, Киаран Доннелли, Кен Джиротти) [боевик, драма, военный, история, 2015] HDTVRip, dvo

Dracon

3 | 5

431.76 МБ

В этой теме нет новых непрочитанных сообщений. Викинги / Vikings [03x01-10 из 10] (Киаран Доннелли, Йохан Ренк, Кен Джиротти)[2015, боевик, драма, военный, история, WEB-DLRip | AlexFilm]

Nickolas3435

1021 | 1177

5.21 ГБ

В этой теме нет новых непрочитанных сообщений. Викинги / Vikings [03х01-10 из 10] (Киаран Доннелли, Йохан Ренк, Кен Джиротти)[2015, боевик, драма, военный, история, WEB-DL 720p | AlexFilm]

Nickolas3435

199 | 158

14.73 ГБ

В этой теме нет новых непрочитанных сообщений. Викинги / Vikings [03х01-10 из 10] (Йохан Ренк, Киаран Доннелли, Кен Джиротти) [боевик, драма, военный, история, 2015] WEB-DL 1080p, Mvo [AlexFilm]

Dracon

53 | 49

18.36 ГБ

В этой теме нет новых непрочитанных сообщений. Викинги / Vikings [03x01-10 из 10] (Йохан Ренк, Киаран Доннелли, Кен Джиротти) [боевик, драма, военный, история, 2015] WEB-DL 1080p, Mvo [LostFilm]

Dracon

183 | 249

18.37 ГБ

В этой теме нет новых непрочитанных сообщений. Викинги / Vikings [03х01-10 из 10] (Йохан Ренк, Киаран Доннелли, Кен Джиротти) [боевик, драма, военный, история, 2015] WEB-DL 1080p, Mvo [NewStudio]

Dracon

17 | 56

18.36 ГБ


Начать новую тему Ответить на тему  [ 1 сообщение ] 




Для Мосгорсуда, Роскомнадзора и рекламодателей:: mosgorsud-torrent[собачка]yandex.ru