Торрент файл
скачать торрент магнет ссылка Добавлен: 19 дек 2011, 23:27
Размер: 2.23 ГБ
Сидеров: 5
Личеров: 4
Автор

СообщениеДобавлено: 19 дек 2011, 23:27 

Не в сети
Супермодератор
Аватара пользователя
Дата регистрации:
11 апр 2010, 18:10
Спасибо: 5802 / 7
Сообщения: 56779
Уличные Войны, 1 сезон 3-4 серии / True Justice: Street Wars

Перевод: Профессиональный (многоголосый, закадровый), cубтитры: отсутствуют
Формат: HDRip-AVC, MKV, H.264, AC3
Страна: США
Режиссер: Киони Ваксман
Жанр: Боевик, Триллер, Драма
Продолжительность: 01:30:30
Год выпуска: 2011
В ролях: Стивен Сигал, Алекс Маллари мл., Джоуз Исо Пена, Стюарт Уильям Биг Слипс, Кайл Кэсси, Майкл Эклунд, Марина Ева, Питер Грэхэм-Годрэу, Сара Линд, Джим Торберн

Описание: Быть копом нелегко, и в этом не раз убеждался бывалый детектив Элайя Кейн, повидавший на своём веку немало драк, перестрелок, локальных войн и жестоких схваток. В этом он уверяет и свой отряд полицейских-коллег и напарников, большинство из которых являются совсем зелёными новичками. Однако, жизнь на улицах города является столь же непростой, сколь и опасной, поэтому блюстители закона и охранники правопорядка вынуждены день за днём пресекать правонарушения и предотвращать преступления, ловить бандитов и арестовывать наркоторговцев. Опытный Элайя во всём помогает и способствует юным законникам, а также вразумляет и наставляет их на путь праведный. Постепенно улицы очищаются от маргинальных нечистот и презирающих закон лиц, но всё новые проблемы и неприятности дают знать, что южному правосудию не быть невостребованным.



Видео: 1280x720 (1.77, 23.976 fps, AVC (x.264), 2893 kbps, 0.131 bit/pixel
Аудио#1: Русский: 48 kHz, AC3 Dolby Digital, 3/2 (L,C,R,l,r) + LFE ch, ~448 kbps [Профессиональный (многоголосый, закадровый)]
Аудио#2: Английский: 48 kHz, АС3, 2ch (L,R), ~128 kbps[Оригинал]

General
Complete name : true_justice_street_wars_[tfile.ru].mkv
Format : Matroska
File size : 2.23 GiB
Duration : 1h 30mn
Overall bit rate : 3 539 Kbps
Movie name : Уличные войны / True Justice: Street wars (2011) HDRip-AVC
Encoded date : UTC 2011-05-22 04:26:00
Writing application : mkvmerge v2.3.0 ('Freak U') built on Sep8 2008 18:32:16
Writing library : libebml v0.7.7 + libmatroska v0.8.1
Video #1
ID : 1
Format : AVC
Format/Info : Advanced Video Codec
Format profile : High@L4.1
Format settings, CABAC : Yes
Format settings, ReFrames : 3 frames
Muxing mode : Container profile=Unknown@4.1
Codec ID : V_MPEG4/ISO/AVC
Duration : 1h 30mn
Bit rate : 2 893 Kbps
Width : 1 280 pixels
Height : 720 pixels
Display aspect ratio : 16:9
Frame rate : 23.976 fps
Resolution : 8 bits
Colorimetry : 4:2:0
Scan type : Progressive
Bits/(Pixel*Frame) : 0.131
Stream size : 1.82 GiB (82%)
Title :
Language : English
Audio #2
ID : 2
Format : AC-3
Format/Info : Audio Coding 3
Codec ID : A_AC3
Duration : 1h 30mn
Bit rate mode : Constant
Bit rate : 448 Kbps
Channel(s) : 6 channels
Channel positions : Front: L C R, Surround: L R, LFE
Sampling rate : 48.0 KHz
Video delay : 5ms
Stream size : 289 MiB (13%)
Title :
Language : Russian
Audio #3
ID : 3
Format : AC-3
Format/Info : Audio Coding 3
Codec ID : A_AC3
Duration : 1h 30mn
Bit rate mode : Constant
Bit rate : 128 Kbps
Channel(s) : 2 channels
Channel positions : L R
Sampling rate : 48.0 KHz
Video delay : 5ms
Stream size : 82.7 MiB (4%)
Title :
Language : English





Поделиться:




реклама партнёра


Вернуться к началу
 Профиль Отправить личное сообщение  
 
   Похожие торренты   Автор   Торрент   Размер 
В этой теме нет новых непрочитанных сообщений. Перекресток смерти / True Justice [Боевик, триллер, драма, криминал, 2012] BDRemux 1080p, Dub [РЕН ТВ]

salma3

5 | 7

22.22 ГБ

В этой теме нет новых непрочитанных сообщений. Перекресток смерти / True Justice [Боевик, триллер, драма, криминал, 2012] BDRip 720p, Dub [РЕН ТВ]

salma3

16 | 5

3.17 ГБ

В этой теме нет новых непрочитанных сообщений. Наемники / Mercenary for Justice [Боевик, триллер, драма, 2006] HDRip, Mvo

salma3

0 | 2

1.46 ГБ

В этой теме нет новых непрочитанных сообщений. LEGO супергерои DC: Лига справедливости против легиона смерти / Lego DC Comics Super Heroes: Justice League: Attack of the Legion of Doom! (Брэндон Виетти) [Мультфильм, фантастика, боевик, комедия, 2015] HDRip, mvo [Чистый звук]

Dracon

56 | 3

1.37 ГБ

В этой теме нет новых непрочитанных сообщений. Некая справедливость / A Certain Justice [боевик, драма, 2014] HDRip, Dvo

Dracon

487 | 13

1.37 ГБ

В этой теме нет новых непрочитанных сообщений. Во имя справедливости / Out for Justice [боевик, криминал, драма, 1991] HDRip, Dub

salma3

42 | 8

1.45 ГБ

В этой теме нет новых непрочитанных сообщений. Морская Полиция: Лос-Анджелес / NCIS: Los Angeles / 3 сезон 1-19 серии из 24 [Триллер, драма, криминал, детектив, боевик, 2011-2012] WEB-DLRip, Mvo [FOX]

salma3

0 | 1

13.17 ГБ


Начать новую тему Ответить на тему  [ 1 сообщение ] 




Для Мосгорсуда, Роскомнадзора и рекламодателей:: mosgorsud-torrent[собачка]yandex.ru