Торрент файл
скачать торрент магнет ссылка Добавлен: 19 дек 2011, 23:22
Размер: 10.4 ГБ
Сидеров: 0
Личеров: 7
Автор

СообщениеДобавлено: 19 дек 2011, 23:22 

Не в сети
Супермодератор
Аватара пользователя
Дата регистрации:
11 апр 2010, 18:10
Спасибо: 5963 / 7
Сообщения: 56762
Милдред Пирс, 1 сезон 5 серий из 5 / Mildred Pierce



Перевод: Профессиональный (многоголосый, закадровый), cубтитры: отсутствуют
Формат: HDTV, MKV, AVC, AC3
Страна: США
Режиссер: Тодд Хейнс
Жанр: Драма
Всего серий: 5
Продолжительность: 5 х 00:58
Год выпуска: 2011

В ролях: Kate Winslet, Guy Pearce, Brían F. O'Byrne, Melissa Leo, James LeGros, Murphy Guyer и др.

Описание: Жизнь преподносит Милдред Пирс печальные сюрпризы и заставляет искать выход из сложных обстоятельств.
Оставшись одна с двумя детьми героиня вынуждена строить свою жизнь с нуля в трудные годы Великой Депрессии.

Драматический мини-сериал снят телеканалом HBO, главную роль исполнила блистательная Кейт Уинслет.


Рейтинг на IMDB:

Видео: 1280х720, (16/9), 23,976 fps, V_MPEG4/ISO/AVC, High@L3.1, ~4041 kbps avg, 0.183 bit/pixel
Аудио: 48,0 kHz, AC-3, 2 ch, Front: L R, 384 kbps avg

Доп. информация:

Перевод: ForeverYoung.
Редактор: Relicit.
Озвучка: Студия "LostFilm"

.
Общее
Уникальный идентификатор: 214673373462535026108000936232072662624 (0xA180967B76CC993A96A7B2E2258E4E60)
Полное имя: E:\Фильмы\Mildred_Pierce_s01_[tfile.ru]\Mildred_Pierce_s01e01_02_[tfile.ru].mkv
Формат: Matroska
Размер файла: 3,75 Гбайт
Продолжительность: 2 ч. 1 м.
Общий поток: 4427 Кбит/сек
Дата кодирования: UTC 2011-04-30 08:20:01
Программа кодирования: mkvmerge v3.2.0 ('Beginnings') built on Feb 12 2010 16:46:17
Библиотека кодирования: libebml v0.7.9 + libmatroska v0.8.1

Видео
Идентификатор: 1
Формат: AVC
Формат/Информация: Advanced Video Codec
Профиль формата: High@L3.1
Параметр CABAC формата: Да
Параметр ReFrames формата: 4 кадры
Параметры GOP формата: M=2, N=4
Идентификатор кодека: V_MPEG4/ISO/AVC
Продолжительность: 2 ч. 1 м.
Битрейт: 4041 Кбит/сек
Ширина: 1280 пикс.
Высота: 720 пикс.
Соотношение сторон: 16:9
Частота кадров: 23,976 кадр/сек
Цветовое пространство: YUV
Подвыборка цветности: 4:2:0
Битовая глубина: 8 бит
Тип развёртки: Прогрессивная
Бит/(Пиксели*Кадры): 0.183
Размер потока: 3,35 Гбайт (89%)
Библиотека кодирования: x264 core 107 r1745 4785e8e
Настройки программы: cabac=1 / ref=3 / deblock=1:0:0 / analyse=0x3:0x113 / me=hex / subme=7 / psy=1 / psy_rd=1.00:0.00 / mixed_ref=1 / me_range=16 / chroma_me=1 / trellis=1 / 8x8dct=1 / cqm=0 / deadzone=21,11 / fast_pskip=1 / chroma_qp_offset=-2 / threads=4 / sliced_threads=0 / nr=0 / decimate=1 / interlaced=0 / constrained_intra=0 / bframes=3 / b_pyramid=2 / b_adapt=1 / b_bias=0 / direct=1 / weightb=1 / open_gop=0 / weightp=2 / keyint=250 / keyint_min=25 / scenecut=40 / intra_refresh=0 / rc_lookahead=40 / rc=2pass / mbtree=1 / bitrate=4041 / ratetol=1.0 / qcomp=0.60 / qpmin=10 / qpmax=51 / qpstep=4 / cplxblur=20.0 / qblur=0.5 / ip_ratio=1.40 / aq=1:1.00

Аудио
Идентификатор: 2
Формат: AC-3
Формат/Информация: Audio Coding 3
Расширение режима: CM (complete main)
Идентификатор кодека: A_AC3
Продолжительность: 2 ч. 1 м.
Вид битрейта: Постоянный
Битрейт: 384 Кбит/сек
Канал(ы): 2 канала(ов)
Расположение каналов: Front: L R
Частота: 48,0 КГц
Битовая глубина: 16 бит
Метод сжатия: С потерями
Размер потока: 333 Мбайт (9%)














Поделиться:




реклама партнёра


Вернуться к началу
 Профиль Отправить личное сообщение  
 
   Похожие торренты   Автор   Торрент   Размер 
В этой теме нет новых непрочитанных сообщений. Милдред Пирс / Mildred Pierce [01-05 из 05] (Тодд Хейнс) [2011, Драма, HDRip | Домашний]

Dracon

32 | 12

3.51 ГБ

В этой теме нет новых непрочитанных сообщений. Помни меня / Remember me [Season 1 episodes 1-3 of 3] (Эшли Пирс) [Драма, детектив, 2014] HDTVRip, dvo

Dracon

3 | 3

2.05 ГБ

В этой теме нет новых непрочитанных сообщений. Непобедимый воин [Сезон 3: 10 серий из 10] / Deadliest Warrior (SpikeTV) [2011, документальный, HDTVRip-AVC] VO

salma3

0 | 1

2.16 ГБ

В этой теме нет новых непрочитанных сообщений. [MilfHunter.com / RealityKings.com] Tucker Pierce - No Picnic For Milf (02.10.2017) [All Sex, Blowjobs, 1080p]

salma3

15 | 5

2.55 ГБ

В этой теме нет новых непрочитанных сообщений. Мегрэ расставляет сети / Maigret sets a trap (Эшли Пирс / Ashley Pearce) [2016г., Великобритания, детектив, HDTVRip] Sub

Alfredovich

23 | 7

940.49 МБ

В этой теме нет новых непрочитанных сообщений. [MomsLickTeens.com / Realitykings.com] Jennifer Jacobs & Tucker Pierce (Poolside Education / 14.11.2017) [Lesbian, Outdoors, Double Dildo, 1080p]

salma3

6 | 2

3.05 ГБ

В этой теме нет новых непрочитанных сообщений. [Housewife1on1.com / NaughtyAmerica.com] Alexa Pierce ( 19441 / 30.03.15) [2015 г., All Sex, Blow Job, Bubble Butt, Cum in Mouth, POV, Stockings, Titty Fucking, 480p]

friizze

2 | 4

684.42 МБ


Начать новую тему Ответить на тему  [ 1 сообщение ] 




Для Мосгорсуда, Роскомнадзора и рекламодателей:: mosgorsud-torrent[собачка]yandex.ru