Торрент файл
скачать торрент магнет ссылка Добавлен: 19 дек 2011, 23:20
Размер: 5.4 ГБ
Сидеров: 66
Личеров: 25
Автор

СообщениеДобавлено: 19 дек 2011, 23:20 

Не в сети
Супермодератор
Аватара пользователя
Дата регистрации:
11 апр 2010, 18:10
Спасибо: 5801 / 7
Сообщения: 56779
Безумцы, 1 сезон 1-13 серии из 13 / Mad Men

Перевод: Профессиональный (многоголосый, закадровый) «FOX Life», cубтитры: отсутствуют
Формат: HDRip, MKV, H.264/AVC, AC3
Страна: США
Режиссер: Тим Хантер, Эндрю Бернштейн, Алан Тейлор, Лесли Линка Глаттер и др.
Жанр: драма
Всего серий: 13
Продолжительность: 13 х 00:48
Год выпуска: 2007

В ролях: Джон Хэмм, Элизабет Мосс, Винсент Картайзер, Джэньюэри Джонс, Кристина Хендрикс, Брайан Бэтт, Michael Gladis, Аарон Стэтон, Рич Соммер, Джон Слэттери и др.

Описание: Нью-Йорк 1960-х годов. В центре внимания Рекламное Агентство Стерлинга-Купера и его креативный директор — мастер манипуляции и интриг — Дон Дрейпер. Находясь на вершине карьеры, он противостоит конкурентам, стараясь сберечь своё положение в компании.
«Безумцы» (Mad Men) - этот термин появился в 1950-х годах для обозначения топ-менеджеров рекламного бизнеса с Мэдисон Авеню. Они сами его придумали.


Рейтинг:

Видео: 1280х720 (16:9), H.264,MPEG4 AVC, High@L4.1 , 23,976 fps, ~1092 kbps, 0.049 bit/pixel
Аудио: 48 kHz, AC3 Dolby Digital, 2 ch (L R), 128 kbps avg [Профессиональный (многоголосый, закадровый)]

Доп. информация: Фрагменты, отсутствующие в трансляции «FOX Life», замещены любительским переводом


Общее
Уникальный идентификатор: 197121210579842703248005239559182739402 (0x944C2A09DC44A59AA9D87649341DE7CA)
Полное имя: E:\mad_men_s01_[tfile.ru]\mad_men_s01e01_[tfile.ru].mkv
Формат: Matroska
Размер файла: 426 Мбайт
Продолжительность: 48 м.
Общий поток: 1223 Кбит/сек
Название фильма: Mad Men.s01e01 Smoke Gets in Your Eyes / Дым режет глаза
Дата кодирования: UTC 2011-06-08 07:01:11
Программа кодирования: mkvmerge v2.4.1 ('Use Me') built on Dec5 2008 18:30:05
Библиотека кодирования: libebml v0.7.7 + libmatroska v0.8.1

Видео
Идентификатор: 1
Формат: AVC
Формат/Информация: Advanced Video Codec
Профиль формата: High@L4.1
Параметр CABAC формата: Да
Параметр ReFrames формата: 4 кадры
Параметры GOP формата: M=4, N=48
Идентификатор кодека: V_MPEG4/ISO/AVC
Продолжительность: 48 м.
Битрейт: 1092 Кбит/сек
Ширина: 1280 пикс.
Высота: 720 пикс.
Соотношение сторон: 16:9
Частота кадров: 23,976 кадр/сек
Цветовое пространство: YUV
Подвыборка цветности: 4:2:0
Битовая глубина: 8 бит
Тип развёртки: Прогрессивная
Бит/(Пиксели*Кадры): 0.049
Размер потока: 373 Мбайт (88%)
Библиотека кодирования: x264 core 114 r1913 5fd3dce
Настройки программы: cabac=1 / ref=3 / deblock=1:0:0 / analyse=0x3:0x113 / me=hex / subme=7 / psy=1 / psy_rd=1.00:0.00 / mixed_ref=1 / me_range=16 / chroma_me=1 / trellis=1 / 8x8dct=1 / cqm=0 / deadzone=21,11 / fast_pskip=1 / chroma_qp_offset=-2 / threads=3 / sliced_threads=0 / nr=0 / decimate=1 / interlaced=0 / constrained_intra=0 / bframes=3 / b_pyramid=2 / b_adapt=1 / b_bias=0 / direct=1 / weightb=1 / open_gop=0 / weightp=2 / keyint=250 / keyint_min=23 / scenecut=40 / intra_refresh=0 / rc_lookahead=40 / rc=2pass / mbtree=1 / bitrate=1092 / ratetol=1.0 / qcomp=0.60 / qpmin=0 / qpmax=69 / qpstep=4 / cplxblur=20.0 / qblur=0.5 / vbv_maxrate=50000 / vbv_bufsize=50000 / nal_hrd=none / ip_ratio=1.40 / aq=1:1.00

Аудио
Идентификатор: 2
Формат: AC-3
Формат/Информация: Audio Coding 3
Профиль формата: Dolby Digital
Расширение режима: CM (complete main)
Идентификатор кодека: A_AC3
Продолжительность: 48 м.
Вид битрейта: Постоянный
Битрейт: 128 Кбит/сек
Канал(ы): 2 канала(ов)
Расположение каналов: Front: L R
Частота: 48,0 КГц
Битовая глубина: 16 бит
Метод сжатия: С потерями
Размер потока: 44,6 Мбайт (10%)
Язык: Russian







Поделиться:




реклама партнёра


Вернуться к началу
 Профиль Отправить личное сообщение  
 
   Похожие торренты   Автор   Торрент   Размер 
В этой теме нет новых непрочитанных сообщений. Батл Крик / Battle Creek [S01] (Эндрю Бернштейн, Дэниэл Эттиэс, Колин Бакси) [2015, Драма, Криминал, WEB-DL 720p | NewStudio]

Dracon

40 | 12

18.55 ГБ

В этой теме нет новых непрочитанных сообщений. Батл Крик / Battle Creek [S01] (Эндрю Бернштейн, Дэниэл Эттиэс, Колин Бакси) [2015, драма, криминал, WEB-DL 720p | Gears Media]

Dracon

7 | 4

15.66 ГБ

В этой теме нет новых непрочитанных сообщений. Батл Крик / Battle Creek [01x01-13 из 13] (Эндрю Бернштейн, Дэниэл Эттиэс, Колин Бакси) [2015, Драма, криминал, WEB-DLRip 720p | LostFilm]

Nickolas3435

108 | 82

16.61 ГБ

В этой теме нет новых непрочитанных сообщений. Батл Крик / Battle Creek [01x01-09 из 13] (Эндрю Бернштейн, Дэниэл Эттиэс, Колин Бакси) [2015, Драма, криминал, WEB-DLRip 720p | LostFilm]

Nickolas3435

23 | 107

11.44 ГБ

В этой теме нет новых непрочитанных сообщений. Батл Крик / Battle Creek [01х01-03 из 13] (Эндрю Бернштейн, Дэниэл Эттиэс, Колин Бакси) [2015, драма, криминал, HDTVRip 720p | Gears Media]

Nickolas3435

0 | 12

2.81 ГБ

В этой теме нет новых непрочитанных сообщений. Батл Крик / Battle Creek [01х01 из 13] (Эндрю Бернштейн, Дэниэл Эттиэс, Колин Бакси) [2015, драма, криминал, HDTVRip 720p | Gears Media]

Nickolas3435

31 | 12

838.89 МБ

В этой теме нет новых непрочитанных сообщений. Джессика Джонс / Jessica Jones [01х01-06 из 13] (Эндрю Бернштейн, Дэниэл Эттиэс, Колин Бакси) [Боевик, Драма, Криминал, Фантастика, 2015] WEBRip 720p [IdeaFilm]

Dracon

16 | 11

9.07 ГБ


Начать новую тему Ответить на тему  [ 1 сообщение ] 




Для Мосгорсуда, Роскомнадзора и рекламодателей:: mosgorsud-torrent[собачка]yandex.ru