Торрент файл
скачать торрент магнет ссылка Добавлен: 19 дек 2011, 23:18
Размер: 1.59 ГБ
Сидеров: 0
Личеров: 5
Автор

СообщениеДобавлено: 19 дек 2011, 23:18 

Не в сети
Супермодератор
Аватара пользователя
Дата регистрации:
11 апр 2010, 18:10
Спасибо: 5960 / 7
Сообщения: 56765
Камелот, 1 сезон 9 серия / Camelot


Битва за перевал Бардон / The Battle of Bardon Pass

Перевод: Профессиональный (многоголосый, закадровый), Субтитры: отсутствуют
Формат: HDTV, MKV, H.264\AVC, AC3
Страна: США, Канада, Великобритания, Ирландия
Режиссер: Микаэл Саломон, Киаран Доннелли, Джереми Подесва
Жанр: Фэнтези, драма, история
Всего серий: 10
Продолжительность: 00:50:15
Год выпуска: 2011

В ролях: Джейми Кэмпбелл Бауэр, Тэмсин Эгертон, Джозеф Файнс, Клэр Форлани, Ева Грин, Питер Муни, Diarmaid Murtagh, Клайв Стэнден, Филип Уинчестер, Шинед Кьюсак

Описание: После внезапной смерти короля Утера, хаос грозит поглотить Великобританию. Волшебник Мерлин видит видение с темным будущим, он берется за молодого и стремительного Артура, неизвестного сына Утера и его наследника, который рос как простолюдин. Но холодная и амбициозная сводная сестра Артура Моргана, будет сражаться с ним до самого конца, вызывая неестественные силы, что бы претендовать на корону в этой эпической битве за власть. В эти темные времена действительно нужен новый король, Гвиневра, супруга Артура, будет ярким светом в суровом мире Артура. Столкнувшись с глубокими моральными решениями, и задачей объединения царства, которое сломанно войной и погруженное в обман, Артур пройдет путь за гранью воображения.

Рейтинг на:


Видео: 1280x720 (16/9), MPEG4 AVC, High@L3.1, 23,976 fps, 3766 kbps avg, 0.170 bit/pixel
Аудио RUS: 48,0 kHz, AC-3, 6 ch, Front: (L,C,R,l,r) + LFE ch, 384 kbps avg
Аудио ENG: 48,0 kHz, AC-3, 6 ch, Front: (L,C,R,l,r) + LFE ch, 384 kbps avg

Доп. информация:

Релиз:


Над релизом работали:
Перевод: opel (mitrakov)
Адаптация: SLRU
Озвучка: Anna_Smile, Алексей Кузнецов и Trinitron

Общее
Уникальный идентификатор: 184207305012669110711812631707578665162 (0x8A95095617020A53904114BBF3EE08CA)
Полное имя: C:\Documents and Settings\Admin\Рабочий стол\720р\Kamelot_S01E09_[tfile.ru].mkv
Формат: Matroska
Размер файла: 1,59 Гбайт
Продолжительность: 50 м.
Общий поток: 4536 Кбит/сек
Название фильма: BaibaKo.tv presents - Камелот 1х09 Битва за перевал Бардон
Дата кодирования: UTC 2011-06-11 11:25:31
Программа кодирования: mkvmerge v4.8.0 ('I Got The...') сборка от May 24 2011 03:12:58
Библиотека кодирования: libebml v1.2.0 + libmatroska v1.1.0

Видео
Идентификатор: 1
Формат: AVC
Формат/Информация: Advanced Video Codec
Профиль формата: High@L4.1
Параметр CABAC формата: Да
Параметр ReFrames формата: 8 кадров
Идентификатор кодека: V_MPEG4/ISO/AVC
Продолжительность: 50 м.
Битрейт: 3766 Кбит/сек
Ширина: 1280 пикс.
Высота: 720 пикс.
Соотношение сторон: 16:9
Частота кадров: 23,976 кадр/сек
Цветовое пространство: YUV
Подвыборка цветности: 4:2:0
Битовая глубина: 8 бит
Тип развёртки: Прогрессивная
Бит/(Пиксели*Кадры): 0.170
Размер потока: 1,29 Гбайт (81%)
Библиотека кодирования: x264 core 102 r1666 d058f37
Настройки программы: cabac=1 / ref=8 / deblock=1:-2:-2 / analyse=0x3:0x113 / me=umh / subme=9 / psy=1 / psy_rd=1.00:0.00 / mixed_ref=1 / me_range=24 / chroma_me=1 / trellis=1 / 8x8dct=1 / cqm=0 / deadzone=21,11 / fast_pskip=0 / chroma_qp_offset=-2 / threads=16 / sliced_threads=0 / nr=0 / decimate=1 / interlaced=0 / constrained_intra=0 / bframes=5 / b_pyramid=2 / b_adapt=1 / b_bias=0 / direct=3 / weightb=1 / open_gop=0 / weightp=2 / keyint=250 / keyint_min=25 / scenecut=40 / intra_refresh=0 / rc_lookahead=40 / rc=2pass / mbtree=1 / bitrate=3766 / ratetol=1.0 / qcomp=0.60 / qpmin=10 / qpmax=51 / qpstep=4 / cplxblur=20.0 / qblur=0.5 / ip_ratio=1.40 / aq=1:1.10
Язык: English

Аудио #1
Идентификатор: 2
Формат: AC-3
Формат/Информация: Audio Coding 3
Расширение режима: CM (complete main)
Идентификатор кодека: A_AC3
Продолжительность: 50 м.
Вид битрейта: Постоянный
Битрейт: 384 Кбит/сек
Каналы: 6 каналов
Расположение каналов: Front: L C R, Side: L R, LFE
Частота: 48,0 КГц
Битовая глубина: 16 бит
Метод сжатия: С потерями
Размер потока: 138 Мбайт (8%)
Заголовок: Rus BaibaKo.tv DD5.1
Язык: Russian

Аудио #2
Идентификатор: 3
Формат: AC-3
Формат/Информация: Audio Coding 3
Расширение режима: CM (complete main)
Идентификатор кодека: A_AC3
Продолжительность: 50 м.
Вид битрейта: Постоянный
Битрейт: 384 Кбит/сек
Каналы: 6 каналов
Расположение каналов: Front: L C R, Side: L R, LFE
Частота: 48,0 КГц
Битовая глубина: 16 бит
Метод сжатия: С потерями
Размер потока: 138 Мбайт (8%)
Заголовок: Eng DD5.1
Язык: English

SUB
1 серия http://tfile.ru/forum/viewtopic.php?t=418228
2 серия http://tfile.ru/forum/viewtopic.php?t=432142
3 серия http://tfile.ru/forum/viewtopic.php?t=434980
4 серия http://tfile.ru/forum/viewtopic.php?t=437432
5 серия http://tfile.ru/forum/viewtopic.php?t=441884
6 серия http://tfile.ru/forum/viewtopic.php?t=443864

BaiBako
1 серия http://tfile.ru/forum/viewtopic.php?t=418858
2 серия http://tfile.ru/forum/viewtopic.php?t=432499
3 серия http://tfile.ru/forum/viewtopic.php?t=435166
4 серия http://tfile.ru/forum/viewtopic.php?t=437841
5 серия http://tfile.ru/forum/viewtopic.php?t=442689
6 серия http://tfile.ru/forum/viewtopic.php?t=444601
7 серия http://tfile.ru/forum/viewtopic.php?t=448345
8 серия http://tfile.ru/forum/viewtopic.php?t=450444
9 серия http://tfile.ru/forum/viewtopic.php?t=454078

BaiBako 720р
1 серия http://tfile.ru/forum/viewtopic.php?t=419086
2 серия http://tfile.ru/forum/viewtopic.php?t=432830
3 серия http://tfile.ru/forum/viewtopic.php?t=435740
4 серия http://tfile.ru/forum/viewtopic.php?t=438723
5 серия http://tfile.ru/forum/viewtopic.php?t=443116
6 серия http://tfile.ru/forum/viewtopic.php?t=444786
7 серия http://tfile.ru/forum/viewtopic.php?t=448384
8 серия http://tfile.ru/forum/viewtopic.php?t=450482

AlexFilm
1 серия http://tfile.ru/forum/viewtopic.php?t=429599
2 серия http://tfile.ru/forum/viewtopic.php?t=433314
3 серия http://tfile.ru/forum/viewtopic.php?t=436316
4 серия http://tfile.ru/forum/viewtopic.php?t=437737
5-6 серии http://tfile.ru/forum/viewtopic.php?t=447082

LostFilm
1-3 серии http://tfile.ru/forum/viewtopic.php?t=436346
4-7 серии http://tfile.ru/forum/viewtopic.php?t=449758
8 серия http://tfile.ru/forum/viewtopic.php?t=452948







Поделиться:




реклама партнёра


Вернуться к началу
 Профиль Отправить личное сообщение  
 
   Похожие торренты   Автор   Торрент   Размер 
В этой теме нет новых непрочитанных сообщений. Викинги / Vikings [Season 3 episode 7 of 10] (Йохан Ренк, Киаран Доннелли, Кен Джиротти) [боевик, драма, военный, история, 2015] HDTVRip, dvo

Dracon

3 | 5

431.76 МБ

В этой теме нет новых непрочитанных сообщений. Викинги / Vikings [03х01-10 из 10] (Йохан Ренк, Киаран Доннелли, Кен Джиротти) [боевик, драма, военный, история, 2015] WEB-DL 720p, Mvo [NewStudio]

Dracon

5 | 923

14.61 ГБ

В этой теме нет новых непрочитанных сообщений. Викинги / Vikings [03x01-10 из 10] (Киаран Доннелли, Йохан Ренк, Кен Джиротти)[2015, боевик, драма, военный, история, WEB-DLRip | AlexFilm]

Nickolas3435

1021 | 1177

5.21 ГБ

В этой теме нет новых непрочитанных сообщений. Викинги / Vikings [03х01-10 из 10] (Йохан Ренк, Киаран Доннелли, Кен Джиротти) [боевик, драма, военный, история, 2015] WEB-DL 1080p, Mvo [AlexFilm]

Dracon

53 | 49

18.36 ГБ

В этой теме нет новых непрочитанных сообщений. Викинги / Vikings [03x01-10 из 10] (Йохан Ренк, Киаран Доннелли, Кен Джиротти) [боевик, драма, военный, история, 2015] WEB-DL 1080p, Mvo [LostFilm]

Dracon

183 | 249

18.37 ГБ

В этой теме нет новых непрочитанных сообщений. Викинги / Vikings [03х01-10 из 10] (Йохан Ренк, Киаран Доннелли, Кен Джиротти) [боевик, драма, военный, история, 2015] WEB-DLRip, Mvo [LostFilm]

Dracon

801 | 516

4.33 ГБ

В этой теме нет новых непрочитанных сообщений. Викинги / Vikings [03х01-10 из 10] (Йохан Ренк, Киаран Доннелли, Кен Джиротти) [боевик, драма, военный, история, 2015] WEB-DL 1080p, Mvo [NewStudio]

Dracon

17 | 56

18.36 ГБ


Начать новую тему Ответить на тему  [ 1 сообщение ] 




Для Мосгорсуда, Роскомнадзора и рекламодателей:: mosgorsud-torrent[собачка]yandex.ru