Торрент файл
скачать торрент магнет ссылка Добавлен: 19 дек 2011, 23:12
Размер: 1.43 ГБ
Сидеров: 5
Личеров: 6
Автор

СообщениеДобавлено: 19 дек 2011, 23:12 

Не в сети
Супермодератор
Аватара пользователя
Дата регистрации:
11 апр 2010, 18:10
Спасибо: 5960 / 7
Сообщения: 56765
Рухнувшие небеса, 1 сезон 1 серия / Falling Skies


Живи и учись / Live.And.Learn

Перевод: Профессиональный (многоголосый, закадровый), Субтитры: отсутствуют
Формат: HDTV, MKV, H.264/AVC, AC3
Страна: США, Канада
Режиссер: Грег Биман
Жанр: Фантастика
Всего серий: 10
Продолжительность: 00:41:32
Год выпуска: 2011

В ролях: Колин Каннингэм, Максим Найт, Ноа Уайл, Мун Бладгуд, Мфо Коахо, Сара Картер, Коннор Джессуп, Брюс Грэй, Дейл Дай, Дрю Рой

Описание: Инопланетное вторжение стало для землян полной неожиданностью. Несколько выживших объединяются, чтобы ежедневно бороться за выживание и попытаться наладить связь с такими же как они «счастливчиками» из других городов, и дать отпор захватчикам из космоса.

Рейтинг на:
[/field][/field]

Видео: 1280x720 (16:9), MPEG4/ISO/AVC, High@L3.1 , 23.976 fps, 4041 Kbps, 0.182 bit/pixel
Аудио RUS: 48.0 kHz, AC3 Dolby Digital, 6 (L,C,R,l,r) + LFE ch, ~384.00 kbps avg
Аудио ENG: 48.0 kHz, AC3 Dolby Digital, 6 (L,C,R,l,r) + LFE ch, ~448.00 kbps avg

Доп. информация:

Релиз:


Над релизом работали:
Озвучка: Styx, Алексей Кузнецов, ChrisTref, Лира Грим
Сведение: Baibak


Общее
Уникальный идентификатор: 210399912011128567407071613002620319827 (0x9E498C90C2A4740D8241B02D2AD7B853)
Полное имя: C:\Documents and Settings\Admin\Рабочий стол\720р\Falling_Skies_S01E01_[tfile.ru].mkv
Формат: Matroska
Размер файла: 1,43 Гбайт
Продолжительность: 41 м.
Общий поток: 4944 Кбит/сек
Дата кодирования: UTC 2011-06-21 11:41:10
Программа кодирования: mkvmerge v4.8.0 ('I Got The...') сборка от May 24 2011 03:12:58
Библиотека кодирования: libebml v1.2.0 + libmatroska v1.1.0

Видео
Идентификатор: 1
Формат: AVC
Формат/Информация: Advanced Video Codec
Профиль формата: High@L3.1
Параметр CABAC формата: Да
Параметр ReFrames формата: 5 кадров
Параметры GOP формата: M=1, N=20
Идентификатор кодека: V_MPEG4/ISO/AVC
Продолжительность: 41 м.
Битрейт: 4014 Кбит/сек
Ширина: 1280 пикс.
Высота: 720 пикс.
Соотношение сторон: 16:9
Частота кадров: 23,976 кадр/сек
Цветовое пространство: YUV
Подвыборка цветности: 4:2:0
Битовая глубина: 8 бит
Тип развёртки: Прогрессивная
Бит/(Пиксели*Кадры): 0.182
Размер потока: 1,16 Гбайт (81%)
Библиотека кодирования: x264 core 115 r2008 4c552d8
Настройки программы: cabac=1 / ref=5 / deblock=1:0:0 / analyse=0x3:0x113 / me=umh / subme=8 / psy=1 / psy_rd=1.00:0.00 / mixed_ref=1 / me_range=16 / chroma_me=1 / trellis=1 / 8x8dct=1 / cqm=0 / deadzone=21,11 / fast_pskip=1 / chroma_qp_offset=-2 / threads=18 / sliced_threads=0 / nr=0 / decimate=1 / interlaced=0 / bluray_compat=0 / constrained_intra=0 / bframes=3 / b_pyramid=2 / b_adapt=2 / b_bias=0 / direct=3 / weightb=1 / open_gop=0 / weightp=2 / keyint=250 / keyint_min=23 / scenecut=40 / intra_refresh=0 / rc_lookahead=50 / rc=crf / mbtree=1 / crf=19.0 / qcomp=0.60 / qpmin=0 / qpmax=69 / qpstep=4 / ip_ratio=1.40 / aq=1:1.00
Язык: English

Аудио #1
Идентификатор: 2
Формат: AC-3
Формат/Информация: Audio Coding 3
Расширение режима: CM (complete main)
Идентификатор кодека: A_AC3
Продолжительность: 41 м.
Вид битрейта: Постоянный
Битрейт: 384 Кбит/сек
Каналы: 6 каналов
Расположение каналов: Front: L C R, Side: L R, LFE
Частота: 48,0 КГц
Битовая глубина: 16 бит
Метод сжатия: С потерями
Размер потока: 114 Мбайт (8%)
Язык: Russian

Аудио #2
Идентификатор: 3
Формат: AC-3
Формат/Информация: Audio Coding 3
Расширение режима: CM (complete main)
Идентификатор кодека: A_AC3
Продолжительность: 41 м.
Вид битрейта: Постоянный
Битрейт: 448 Кбит/сек
Каналы: 6 каналов
Расположение каналов: Front: L C R, Side: L R, LFE
Частота: 48,0 КГц
Битовая глубина: 16 бит
Метод сжатия: С потерями
Размер потока: 133 Мбайт (9%)
Заголовок: English
Язык: English








Поделиться:




реклама партнёра


Вернуться к началу
 Профиль Отправить личное сообщение  
 
   Похожие торренты   Автор   Торрент   Размер 
В этой теме нет новых непрочитанных сообщений. Рухнувшие Небеса / Falling Skies [05x01-10 из 10] (Грег Биман, Холли Дэйл, Серджо Мимика-Геззан) [фантастика, боевик, триллер, 2015] WEB-DLRip 720p, Mvo [LostFilm]

Dracon

172 | 219

12.42 ГБ

В этой теме нет новых непрочитанных сообщений. Рухнувшие Небеса / Falling Skies [05x01-10 из 10] (Грег Биман, Холли Дэйл, Серджо Мимика-Геззан) [фантастика, боевик, триллер, 2015] WEB-DLRip 1080p, Mvo [LostFilm]

Dracon

249 | 414

17.67 ГБ

В этой теме нет новых непрочитанных сообщений. Рухнувшие Небеса / Сошедшие с небес / Falling Skies / 5 сезон 1-10 серия из 10 [фантастика, боевик, триллер, 2015] WEB-DLRip, Mvo [LostFilm]

salma3

1749 | 1394

5.2 ГБ

В этой теме нет новых непрочитанных сообщений. Рухнувшие небеса / Falling Skies [S01-05] [фантастика, боевик, триллер, 2011-2015] WEB-DL 720p, Mvo [LostFilm, Sci-Fi]

salma3

2 | 28

77.94 ГБ

В этой теме нет новых непрочитанных сообщений. Герои: Возрождение/ Heroes Reborn (Сезон 1,Серия 0-13 из 13) (Лариса Кондрацки, Грег Биман, Мэтт Шекман) [2015-2016 , Фэнтези, триллер, драма, фантастика , WEB-DLRip-AVC 1080p] [MVO] [LostFilm ]

Враг Нароода

0 | 1

26.86 ГБ

В этой теме нет новых непрочитанных сообщений. Герои: Возрождение / Heroes: Reborn [01x01-09 из 13] (Лариса Кондрацки, Грег Биман, Мэтт Шекман) [Фантастика, триллер, драма, 2015] HDTV 720p [Jaskier]

Dracon

32 | 72

10.1 ГБ

В этой теме нет новых непрочитанных сообщений. Однажды в сказке / Once Upon a Time [05х01-11] (Грег Биман, Марк Майлод, Дин Уайт) [2015, Драма, фэнтези, WEB-DL 720р | Кубик в Кубе]

Nickolas3435

6 | 1

15.88 ГБ


Начать новую тему Ответить на тему  [ 1 сообщение ] 




Для Мосгорсуда, Роскомнадзора и рекламодателей:: mosgorsud-torrent[собачка]yandex.ru