Торрент файл
скачать торрент магнет ссылка Добавлен: 19 дек 2011, 23:12
Размер: 1.29 ГБ
Сидеров: 0
Личеров: 4
Автор

СообщениеДобавлено: 19 дек 2011, 23:12 

Не в сети
Супермодератор
Аватара пользователя
Дата регистрации:
11 апр 2010, 18:10
Спасибо: 5801 / 7
Сообщения: 56779
Рухнувшие небеса, 1 сезон 2 серия / Falling Skies


Арсенал / The Armory

Перевод: Профессиональный (многоголосый, закадровый), Субтитры: отсутствуют
Формат: HDTV, MKV, H.264/AVC, AC3
Страна: США, Канада
Режиссер: Грег Биман
Жанр: Фантастика
Всего серий: 10
Продолжительность: 00:41:08
Год выпуска: 2011

В ролях: Колин Каннингэм, Максим Найт, Ноа Уайл, Мун Бладгуд, Мфо Коахо, Сара Картер, Коннор Джессуп, Брюс Грэй, Дейл Дай, Дрю Рой

Описание: Инопланетное вторжение стало для землян полной неожиданностью. Несколько выживших объединяются, чтобы ежедневно бороться за выживание и попытаться наладить связь с такими же как они «счастливчиками» из других городов, и дать отпор захватчикам из космоса.

Рейтинг на:
[/field][/field]

Видео: 1280x720 (16:9), MPEG4/ISO/AVC, High@L3.1 , 23.976 fps, 3582 Kbps, 0.162 bit/pixel
Аудио RUS: 48.0 kHz, AC3 Dolby Digital, 6 (L,C,R,l,r) + LFE ch, ~384.00 kbps avg
Аудио ENG: 48.0 kHz, AC3 Dolby Digital, 6 (L,C,R,l,r) + LFE ch, ~448.00 kbps avg

Доп. информация:

Релиз:


Над релизом работали:
Озвучка: Styx, Алексей Кузнецов, ChrisTref, Лира Грим
Сведение: Baibak


Общее
Уникальный идентификатор: 215854675112847452297838756106203167238 (0xA26419267DC7EF09B9B65F5647F1FA06)
Полное имя: C:\Documents and Settings\Admin\Рабочий стол\720р\Falling_Skies_S01E02_[tfile.ru].mkv
Формат: Matroska
Размер файла: 1,29 Гбайт
Продолжительность: 41 м.
Общий поток: 4504 Кбит/сек
Дата кодирования: UTC 2011-06-22 03:54:16
Программа кодирования: mkvmerge v4.8.0 ('I Got The...') сборка от May 24 2011 03:12:58
Библиотека кодирования: libebml v1.2.0 + libmatroska v1.1.0

Видео
Идентификатор: 1
Формат: AVC
Формат/Информация: Advanced Video Codec
Профиль формата: High@L3.1
Параметр CABAC формата: Да
Параметр ReFrames формата: 5 кадров
Параметры GOP формата: M=4, N=32
Идентификатор кодека: V_MPEG4/ISO/AVC
Продолжительность: 41 м.
Битрейт: 3582 Кбит/сек
Ширина: 1280 пикс.
Высота: 720 пикс.
Соотношение сторон: 16:9
Частота кадров: 23,976 кадр/сек
Цветовое пространство: YUV
Подвыборка цветности: 4:2:0
Битовая глубина: 8 бит
Тип развёртки: Прогрессивная
Бит/(Пиксели*Кадры): 0.162
Размер потока: 1,03 Гбайт (80%)
Язык: English

Аудио #1
Идентификатор: 2
Формат: AC-3
Формат/Информация: Audio Coding 3
Расширение режима: CM (complete main)
Идентификатор кодека: A_AC3
Продолжительность: 41 м.
Вид битрейта: Постоянный
Битрейт: 384 Кбит/сек
Каналы: 6 каналов
Расположение каналов: Front: L C R, Side: L R, LFE
Частота: 48,0 КГц
Битовая глубина: 16 бит
Метод сжатия: С потерями
Задержка видео: 23 мс.
Размер потока: 113 Мбайт (9%)
Язык: Russian

Аудио #2
Идентификатор: 3
Формат: AC-3
Формат/Информация: Audio Coding 3
Расширение режима: CM (complete main)
Идентификатор кодека: A_AC3
Продолжительность: 41 м.
Вид битрейта: Постоянный
Битрейт: 448 Кбит/сек
Каналы: 6 каналов
Расположение каналов: Front: L C R, Side: L R, LFE
Частота: 48,0 КГц
Битовая глубина: 16 бит
Метод сжатия: С потерями
Задержка видео: 23 мс.
Размер потока: 132 Мбайт (10%)
Заголовок: English
Язык: English








Поделиться:




реклама партнёра


Вернуться к началу
 Профиль Отправить личное сообщение  
 
   Похожие торренты   Автор   Торрент   Размер 
В этой теме нет новых непрочитанных сообщений. Рухнувшие Небеса / Falling Skies [05x01-10 из 10] (Грег Биман, Холли Дэйл, Серджо Мимика-Геззан) [фантастика, боевик, триллер, 2015] WEB-DLRip 1080p, Mvo [LostFilm]

Dracon

249 | 414

17.67 ГБ

В этой теме нет новых непрочитанных сообщений. Рухнувшие Небеса / Falling Skies [05x01-10 из 10] (Грег Биман, Холли Дэйл, Серджо Мимика-Геззан) [фантастика, боевик, триллер, 2015] WEB-DLRip 720p, Mvo [LostFilm]

Dracon

172 | 219

12.42 ГБ

В этой теме нет новых непрочитанных сообщений. Рухнувшие Небеса / Сошедшие с небес / Falling Skies / 5 сезон 1-10 серия из 10 [фантастика, боевик, триллер, 2015] WEB-DLRip, Mvo [LostFilm]

salma3

1741 | 1391

5.2 ГБ

В этой теме нет новых непрочитанных сообщений. Сошедшие с небес / Рухнувшие небеса / Falling Skies / 4 сезон 1-12 серии из 12 [Фантастика, боевик, триллер, 2014] WEB-DLRip, Mvo [LostFilm]

salma3

450 | 98

5.44 ГБ

В этой теме нет новых непрочитанных сообщений. Сошедшие с небес / Рухнувшие небеса / Falling Skies [S04] [Фантастика, боевик, триллер, 2014] WEB-DL 1080p, Mvo [LostFilm]

Dracon

156 | 66

21.31 ГБ

В этой теме нет новых непрочитанных сообщений. Герои: Возрождение/ Heroes Reborn (Сезон 1,Серия 0-13 из 13) (Лариса Кондрацки, Грег Биман, Мэтт Шекман) [2015-2016 , Фэнтези, триллер, драма, фантастика , WEB-DLRip-AVC 1080p] [MVO] [LostFilm ]

Враг Нароода

0 | 0

26.86 ГБ

В этой теме нет новых непрочитанных сообщений. Герои: Возрождение / Heroes: Reborn [01x01-09 из 13] (Лариса Кондрацки, Грег Биман, Мэтт Шекман) [Фантастика, триллер, драма, 2015] HDTV 720p [Jaskier]

Dracon

32 | 71

10.1 ГБ


Начать новую тему Ответить на тему  [ 1 сообщение ] 




Для Мосгорсуда, Роскомнадзора и рекламодателей:: mosgorsud-torrent[собачка]yandex.ru