Торрент файл
скачать торрент магнет ссылка Добавлен: 19 дек 2011, 23:11
Размер: 5.4 ГБ
Сидеров: 27
Личеров: 3
Автор

СообщениеДобавлено: 19 дек 2011, 23:11 

Не в сети
Супермодератор
Аватара пользователя
Дата регистрации:
11 апр 2010, 18:10
Спасибо: 5995 / 7
Сообщения: 56686
Безумцы, 4 сезон 1-13 серии из 13 / Mad Men

Перевод: Профессиональный (многоголосый, закадровый) «FOX Life», cубтитры: отсутствуют
Формат: HDRip, MKV, H.264/AVC, AC3
Страна: США
Режиссер: Фил Абрахам, Мэттью Уэйнер, Лесли Линка Глаттер и др.
Жанр: драма
Всего серий: 13
Продолжительность: 13 х 00:47
Год выпуска: 2010

В ролях: Джон Хэмм, Элизабет Мосс, Винсент Картайзер, Джэньюэри Джонс, Кристина Хендрикс, Брайан Бэтт, Michael Gladis, Аарон Стэтон, Рич Соммер, Джон Слэттери и др.

Описание: В основе сюжета сериала Безумцы, разворачивающегося в 60-е годы XX века — работа вымышленного рекламного агентства «Стерлинг-Купер», расположенного на престижной Медисон-авеню в Нью-Йорке. В центре повествования жизньдиректора-креативщикаДона Дрейпера (Джон Хэмм) и его коллег. Фоном в сериале отражена динамика изменений общественных нравов в США 1960-х годов, включая темы супружеской измены, курения, алкоголизма, расизма, эмансипации женщин, гомофобии, антисемитизма, охраны окружающей среды и другие, а также, среди прочего, передана атмосфера холодной войны, карибский кризис и убийство Джона Кеннеди.

Рейтинг:

Видео: 1280х720 (16:9), H.264, MPEG4 AVC, High@L4.1 , 23,976 fps, ~1127 kbps, 0.051 bit/pixel
Аудио: 48 kHz, AC3 Dolby Digital, 2 ch (L, R), 128 kbps avg [Профессиональный (многоголосый, закадровый)]


Общее
Уникальный идентификатор: 219711047548801703125650333383619249239 (0xA54ACEFDB3D52EB393222A3882680457)
Полное имя: E:\mad_men_s04_[tfile.ru]\mad_men_s04e01_[tfile.ru].mkv
Формат: Matroska
Размер файла: 425 Мбайт
Продолжительность: 47 м.
Общий поток: 1258 Кбит/сек
Название фильма: Mad Men.s04e01 Public Relations / Связи с общественностью
Дата кодирования: UTC 2011-06-23 13:23:23
Программа кодирования: mkvmerge v2.4.1 ('Use Me') built on Dec5 2008 18:30:05
Библиотека кодирования: libebml v0.7.7 + libmatroska v0.8.1

Видео
Идентификатор: 1
Формат: AVC
Формат/Информация: Advanced Video Codec
Профиль формата: High@L4.1
Параметр CABAC формата: Да
Параметр ReFrames формата: 4 кадры
Параметры GOP формата: M=4, N=45
Идентификатор кодека: V_MPEG4/ISO/AVC
Продолжительность: 47 м.
Битрейт: 1127 Кбит/сек
Ширина: 1280 пикс.
Высота: 720 пикс.
Соотношение сторон: 16:9
Частота кадров: 23,976 кадр/сек
Цветовое пространство: YUV
Подвыборка цветности: 4:2:0
Битовая глубина: 8 бит
Тип развёртки: Прогрессивная
Бит/(Пиксели*Кадры): 0.051
Размер потока: 374 Мбайт (88%)
Библиотека кодирования: x264 core 114 r1913 5fd3dce
Настройки программы: cabac=1 / ref=3 / deblock=1:0:0 / analyse=0x3:0x113 / me=hex / subme=7 / psy=1 / psy_rd=1.00:0.00 / mixed_ref=1 / me_range=16 / chroma_me=1 / trellis=1 / 8x8dct=1 / cqm=0 / deadzone=21,11 / fast_pskip=1 / chroma_qp_offset=-2 / threads=3 / sliced_threads=0 / nr=0 / decimate=1 / interlaced=0 / constrained_intra=0 / bframes=3 / b_pyramid=2 / b_adapt=1 / b_bias=0 / direct=1 / weightb=1 / open_gop=0 / weightp=2 / keyint=250 / keyint_min=23 / scenecut=40 / intra_refresh=0 / rc_lookahead=40 / rc=2pass / mbtree=1 / bitrate=1127 / ratetol=1.0 / qcomp=0.60 / qpmin=0 / qpmax=69 / qpstep=4 / cplxblur=20.0 / qblur=0.5 / vbv_maxrate=50000 / vbv_bufsize=50000 / nal_hrd=none / ip_ratio=1.40 / aq=1:1.00

Аудио
Идентификатор: 2
Формат: AC-3
Формат/Информация: Audio Coding 3
Расширение режима: CM (complete main)
Идентификатор кодека: A_AC3
Продолжительность: 47 м.
Вид битрейта: Постоянный
Битрейт: 128 Кбит/сек
Канал(ы): 2 канала(ов)
Расположение каналов: Front: L R
Частота: 48,0 КГц
Битовая глубина: 16 бит
Метод сжатия: С потерями
Размер потока: 43,3 Мбайт (10%)
Язык: Russian











Поделиться:



Вернуться к началу
 Профиль Отправить личное сообщение  
 
   Похожие торренты   Автор   Торрент   Размер 
В этой теме нет новых непрочитанных сообщений. Сорвиголова / Daredevil (Сезон 1, Серия 1-13 из 13) (Фил Абрахам, Стивен С. ДеНайт, Кен Джиротти) [2015, Фантастика, боевик , WEB-DLRip-AVC 720p] [DD5.1] [MVO] [LostFilm ,NewStudio ,Jaskier , BaibaKo ,Ideafilm + Subs Rus,ENG]

Враг Нароода

16 | 7

44.03 ГБ

В этой теме нет новых непрочитанных сообщений. Гордость / Pride (Мэттью Уорчас) [Драма, Комедия, 2014] HDRip, Mvo [iTunes]

Dracon

658 | 55

1.46 ГБ

В этой теме нет новых непрочитанных сообщений. Гордость / Pride (Мэттью Уорчас) [Драма, Комедия, 2014] BDRip 720p, Mvo [iTunes]

Dracon

152 | 6

6.47 ГБ

В этой теме нет новых непрочитанных сообщений. Уилл / Will / 1 сезон 1-10 серии из 10 [драма, 2017] WEBRip 720p, Mvo [IdeaFilm]

salma3

10 | 10

27.93 ГБ

В этой теме нет новых непрочитанных сообщений. Зверинец / Zoo / 2 сезон 1-13 серии из 13 [триллер, драма, 2015] WEB-DL 720p, Mvo [NewStudio]

salma3

0 | 1

11.66 ГБ

В этой теме нет новых непрочитанных сообщений. Зверинец / Zoo / 3 сезон 1-13 серии из 13 [фантастика, триллер, драма, 2017] WEB-DL 720p, Mvo [NewStudio]

salma3

13 | 17

18.85 ГБ

В этой теме нет новых непрочитанных сообщений. Скорпион / Scorpion / 3 сезон 1-24 серии из 24 [триллер, драма, боевик, 2016] WEB-DL 720p, Mvo [FOX]

salma3

5 | 11

33.73 ГБ


Начать новую тему Ответить на тему  [ 1 сообщение ] 




Для Мосгорсуда, Роскомнадзора и рекламодателей:: mosgorsud-torrent[собачка]yandex.ru
cron