Торрент файл
скачать торрент магнет ссылка Добавлен: 19 дек 2011, 22:58
Размер: 1.6 ГБ
Сидеров: 0
Личеров: 5
Автор

СообщениеДобавлено: 19 дек 2011, 22:58 

Не в сети
Супермодератор
Аватара пользователя
Дата регистрации:
11 апр 2010, 18:10
Спасибо: 5801 / 7
Сообщения: 56779
Люди-Альфа / Псионики, 1 Сезон 1 Серия / Alphas


Пилот / Pilot

Перевод: Профессиональный (Двухголосый, закадровый) Субтитры: Отсутствуют
Формат: WEB-DL, MKV, H.264/AVC, МР3
Страна: США
Режиссер: Ник Копус
Жанр: Фантастика, боевик, триллер, драма
Всего серий: ??
Продолжительность: 01:03:38
Год выпуска: 2011

В ролях: Райан Картрайт, Уоррен Кристи, Азита Ганизада, Лаура Меннелл, Дэвид Стрэтэйрн, Мэлик Йоба, Махершалалхашбаз Али, Мэтт Бойс

Описание: Эксперт минобороны Ли Розен, специализируется на необычных явлениях, и он лидер команды из пяти человек с мозговыми аномалиями. По отдельности члены группы мало отличаются от обычных людей, но вместе способны демонстрировать чудеса умственной и физической деятельности.
Они способны выполнять те задания, которые не по зубам ФБР, ЦРУ или Пентагону..


Рейтинг на:
[/field]

Видео: 1280x720 (16:9), MPEG4/ISO/AVC, High@L3.1 , 24 fps, 4107 Kbps, 0.186 bit/pixel
Аудио RUS: 44.1 kHz, MPEG Layer 3, 2 ch, ~128.00 kbps avg
Аудио ENG: 48.0 kHz, AC3 Dolby Digital, 6 (L,C,R,l,r) + LFE ch, ~384.00 kbps avg

Релиз:
[/field]

Над релизом работали:
Перевод: Notabenoid
Озвучка: Alex White & Irene Black
Редакция: TwinkleRay, Хорь

1 серия http://tfile.ru/forum/viewtopic.php?t=463172 [GraviTV]*
*-Обновляемая раздача

Общее
Уникальный идентификатор: 196524637217456142887585175053874479967 (0x93D944B36AE0E99BB6503D5799D7C35F)
Полное имя: C:\Documents and Settings\Admin\Рабочий стол\720р\Alphas_S01E01_[tfile.ru].mkv
Формат: Matroska
Размер файла: 1,60 Гбайт
Продолжительность: 1 ч. 3 м.
Общий поток: 3610 Кбит/сек
Дата кодирования: UTC 2011-07-14 19:13:01
Программа кодирования: mkvmerge v4.8.0 ('I Got The...') сборка от May 24 2011 03:12:58
Библиотека кодирования: libebml v1.2.0 + libmatroska v1.1.0

Видео
Идентификатор: 1
Формат: AVC
Формат/Информация: Advanced Video Codec
Профиль формата: High@L3.1
Параметр CABAC формата: Да
Параметр ReFrames формата: 5 кадров
Идентификатор кодека: V_MPEG4/ISO/AVC
Продолжительность: 1 ч. 3 м.
Битрейт: 3026 Кбит/сек
Ширина: 1280 пикс.
Высота: 720 пикс.
Соотношение сторон: 16:9
Частота кадров: 23,976 кадр/сек
Цветовое пространство: YUV
Подвыборка цветности: 4:2:0
Битовая глубина: 8 бит
Тип развёртки: Прогрессивная
Бит/(Пиксели*Кадры): 0.137
Размер потока: 1,35 Гбайт (84%)
Библиотека кодирования: x264 core 115 r2008 4c552d8
Настройки программы: cabac=1 / ref=5 / deblock=1:0:0 / analyse=0x3:0x113 / me=umh / subme=8 / psy=1 / psy_rd=1.00:0.00 / mixed_ref=1 / me_range=16 / chroma_me=1 / trellis=1 / 8x8dct=1 / cqm=0 / deadzone=21,11 / fast_pskip=1 / chroma_qp_offset=-2 / threads=18 / sliced_threads=0 / nr=0 / decimate=1 / interlaced=0 / bluray_compat=0 / constrained_intra=0 / bframes=3 / b_pyramid=2 / b_adapt=2 / b_bias=0 / direct=3 / weightb=1 / open_gop=0 / weightp=2 / keyint=250 / keyint_min=23 / scenecut=40 / intra_refresh=0 / rc_lookahead=50 / rc=crf / mbtree=1 / crf=19.0 / qcomp=0.60 / qpmin=0 / qpmax=69 / qpstep=4 / ip_ratio=1.40 / aq=1:1.00
Язык: English

Аудио #1
Идентификатор: 2
Формат: MPEG Audio
Версия формата: Version 1
Профиль формата: Layer 3
Режим: Joint stereo
Расширение режима: MS Stereo
Идентификатор кодека: A_MPEG/L3
Идентификатор кодека/Подсказка: MP3
Продолжительность: 1 ч. 3 м.
Вид битрейта: Постоянный
Битрейт: 128 Кбит/сек
Каналы: 2 канала
Частота: 44,1 КГц
Метод сжатия: С потерями
Размер потока: 58,3 Мбайт (4%)
Заголовок: Gravi-TV
Язык: Russian

Аудио #2
Идентификатор: 3
Формат: AC-3
Формат/Информация: Audio Coding 3
Расширение режима: CM (complete main)
Идентификатор кодека: A_AC3
Продолжительность: 1 ч. 3 м.
Вид битрейта: Постоянный
Битрейт: 384 Кбит/сек
Каналы: 6 каналов
Расположение каналов: Front: L C R, Side: L R, LFE
Частота: 48,0 КГц
Битовая глубина: 16 бит
Метод сжатия: С потерями
Размер потока: 175 Мбайт (11%)
Заголовок: English
Язык: English








Поделиться:




реклама партнёра


Вернуться к началу
 Профиль Отправить личное сообщение  
 
   Похожие торренты   Автор   Торрент   Размер 
В этой теме нет новых непрочитанных сообщений. Группа Альфа. Люди специального назначения [Документальный, криминал, 2014] HDTV 1080i

Dracon

48 | 5

4.87 ГБ

В этой теме нет новых непрочитанных сообщений. Люди Икс: Апокалипсис / X-Men: Apocalypse (Фантастика, боевик, приключения, 2016) BDRip HEVC 720р от SuperMin | D

marya111

0 | 0

2.84 ГБ

В этой теме нет новых непрочитанных сообщений. Доминион / Dominion [01х01-08 из 08] (Скотт Чарльз Стюарт) [2014, ужасы, фантастика, фэнтези, боевик, драма, HDTV 720р | Kerob]

Nickolas3435

40 | 56

8.89 ГБ

В этой теме нет новых непрочитанных сообщений. Сверхъестественное / Supernatural [11х01-05] (Роберт Сингер, Дж. Миллер Тобин, Джеймс Л. Конуэй) [2015, Фантастика, мистика, ужасы, триллер, драма, HDTV 720р | DreamRecords]

Nickolas3435

80 | 436

4.01 ГБ

В этой теме нет новых непрочитанных сообщений. Настоящие люди / Реальные люди / Äkta människor / Real Humans [S01-02] [фантастика, триллер, драма, 2012-2014] WEB-DLRip, Mvo [Baibako]

salma3

65 | 24

15.55 ГБ

В этой теме нет новых непрочитанных сообщений. Стрела / Arrow [03x01-08] (Дэвид Баррет, Дэвид Наттер) [2014, фантастика, боевик, драма, детектив, приключения, HDTV 720р | Kerob]

Nickolas3435

22 | 77

8.25 ГБ

В этой теме нет новых непрочитанных сообщений. Стрела / Arrow [03x01-02] (Дэвид Баррет, Дэвид Наттер) [2014, фантастика, боевик, драма, детектив, приключения, HDTV 720р | Kerob]

Nickolas3435

66 | 69

2.07 ГБ


Начать новую тему Ответить на тему  [ 1 сообщение ] 




Для Мосгорсуда, Роскомнадзора и рекламодателей:: mosgorsud-torrent[собачка]yandex.ru