Торрент файл
скачать торрент магнет ссылка Добавлен: 19 дек 2011, 22:57
Размер: 1.54 ГБ
Сидеров: 0
Личеров: 4
Автор

СообщениеДобавлено: 19 дек 2011, 22:57 

Не в сети
Супермодератор
Аватара пользователя
Дата регистрации:
11 апр 2010, 18:10
Спасибо: 5802 / 7
Сообщения: 56779
Рухнувшие небеса, 1 сезон 6 серия / Falling Skies


Убежище ч.1 / Sanctuary Part 1

Перевод: Профессиональный (многоголосый, закадровый), Субтитры: отсутствуют
Формат: HDTV, MKV, H.264/AVC, AC3
Страна: США, Канада
Режиссер: Грег Биман
Жанр: Фантастика
Всего серий: 10
Продолжительность: 00:41:23
Год выпуска: 2011

В ролях: Колин Каннингэм, Максим Найт, Ноа Уайл, Мун Бладгуд, Мфо Коахо, Сара Картер, Коннор Джессуп, Брюс Грэй, Дейл Дай, Дрю Рой

Описание: Инопланетное вторжение стало для землян полной неожиданностью. Несколько выживших объединяются, чтобы ежедневно бороться за выживание и попытаться наладить связь с такими же как они «счастливчиками» из других городов, и дать отпор захватчикам из космоса.

Рейтинг на:
[/field][/field]

Видео: 1280x720 (16:9), MPEG4/ISO/AVC, High@L3.1 , 23.976 fps, 4395 Kbps, 0.199 bit/pixel
Аудио RUS: 48.0 kHz, AC3 Dolby Digital, 6 (L,C,R,l,r) + LFE ch, ~384.00 kbps avg
Аудио ENG: 48.0 kHz, AC3 Dolby Digital, 6 (L,C,R,l,r) + LFE ch, ~448.00 kbps avg

Доп. информация:

Релиз:


Над релизом работали:
Перевод: antoniolagrande, dartraiden, w1cked, KinetiX, xvipman, Valentajn, Armavir, Charon, TheSurin95, Rosezzz
Озвучка: Styx, Алексей Кузнецов, Лира Грим, Татьяна Оболевич
Сведение: Baibak


Общее
Уникальный идентификатор: 206718195184612279343706930124018664857 (0x9B8479E94387EBC9B92754C51683C599)
Полное имя: C:\Documents and Settings\Admin\Рабочий стол\720р\Falling_Skies_S01E06_[tfile.ru].mkv
Формат: Matroska
Размер файла: 1,54 Гбайт
Продолжительность: 41 м.
Общий поток: 5333 Кбит/сек
Название фильма: BaibaKo.tv presents - Рухнувшие небеса 1x06 Убежище ч.1
Дата кодирования: UTC 2011-07-19 19:02:57
Программа кодирования: mkvmerge v4.8.0 ('I Got The...') сборка от May 24 2011 03:12:58
Библиотека кодирования: libebml v1.2.0 + libmatroska v1.1.0

Видео
Идентификатор: 1
Формат: AVC
Формат/Информация: Advanced Video Codec
Профиль формата: High@L4.1
Параметр CABAC формата: Да
Параметр ReFrames формата: 5 кадров
Параметры GOP формата: M=4, N=29
Идентификатор кодека: V_MPEG4/ISO/AVC
Продолжительность: 41 м.
Битрейт: 4395 Кбит/сек
Ширина: 1280 пикс.
Высота: 720 пикс.
Соотношение сторон: 16:9
Частота кадров: 23,976 кадр/сек
Цветовое пространство: YUV
Подвыборка цветности: 4:2:0
Битовая глубина: 8 бит
Тип развёртки: Прогрессивная
Бит/(Пиксели*Кадры): 0.199
Размер потока: 1,27 Гбайт (82%)
Язык: English

Аудио #1
Идентификатор: 2
Формат: AC-3
Формат/Информация: Audio Coding 3
Расширение режима: CM (complete main)
Идентификатор кодека: A_AC3
Продолжительность: 41 м.
Вид битрейта: Постоянный
Битрейт: 384 Кбит/сек
Каналы: 6 каналов
Расположение каналов: Front: L C R, Side: L R, LFE
Частота: 48,0 КГц
Битовая глубина: 16 бит
Метод сжатия: С потерями
Задержка видео: 19 мс.
Размер потока: 114 Мбайт (7%)
Заголовок: Rus BaibaKo.tv DD5.1
Язык: Russian

Аудио #2
Идентификатор: 3
Формат: AC-3
Формат/Информация: Audio Coding 3
Расширение режима: CM (complete main)
Идентификатор кодека: A_AC3
Продолжительность: 41 м.
Вид битрейта: Постоянный
Битрейт: 448 Кбит/сек
Каналы: 6 каналов
Расположение каналов: Front: L C R, Side: L R, LFE
Частота: 48,0 КГц
Битовая глубина: 16 бит
Метод сжатия: С потерями
Задержка видео: 19 мс.
Размер потока: 133 Мбайт (8%)
Заголовок: Eng DD5.1
Язык: English








Поделиться:




реклама партнёра


Вернуться к началу
 Профиль Отправить личное сообщение  
 
   Похожие торренты   Автор   Торрент   Размер 
В этой теме нет новых непрочитанных сообщений. Рухнувшие Небеса / Falling Skies [05x01-10 из 10] (Грег Биман, Холли Дэйл, Серджо Мимика-Геззан) [фантастика, боевик, триллер, 2015] WEB-DLRip 720p, Mvo [LostFilm]

Dracon

172 | 219

12.42 ГБ

В этой теме нет новых непрочитанных сообщений. Рухнувшие Небеса / Falling Skies [05x01-10 из 10] (Грег Биман, Холли Дэйл, Серджо Мимика-Геззан) [фантастика, боевик, триллер, 2015] WEB-DLRip 1080p, Mvo [LostFilm]

Dracon

249 | 414

17.67 ГБ

В этой теме нет новых непрочитанных сообщений. Рухнувшие Небеса / Сошедшие с небес / Falling Skies / 5 сезон 1-10 серия из 10 [фантастика, боевик, триллер, 2015] WEB-DLRip, Mvo [LostFilm]

salma3

1741 | 1391

5.2 ГБ

В этой теме нет новых непрочитанных сообщений. Сошедшие с небес / Рухнувшие небеса / Falling Skies / 4 сезон 1-12 серии из 12 [Фантастика, боевик, триллер, 2014] WEB-DLRip, Mvo [LostFilm]

salma3

450 | 98

5.44 ГБ

В этой теме нет новых непрочитанных сообщений. Сошедшие с небес / Рухнувшие небеса / Falling Skies [S04] [Фантастика, боевик, триллер, 2014] WEB-DL 1080p, Mvo [LostFilm]

Dracon

156 | 66

21.31 ГБ

В этой теме нет новых непрочитанных сообщений. Герои: Возрождение / Heroes Reborn [01х01-12 из 13] (Лариса Кондрацки, Грег Биман, Мэтт Шекман) [2015, Фэнтези, триллер, драма, фантастика, WEB-DLRip | Baibako]

Dracon

48 | 186

6.45 ГБ

В этой теме нет новых непрочитанных сообщений. Герои: Возрождение/ Heroes Reborn (Сезон 1,Серия 0-13 из 13) (Лариса Кондрацки, Грег Биман, Мэтт Шекман) [2015-2016 , Фэнтези, триллер, драма, фантастика , WEB-DLRip-AVC 1080p] [MVO] [LostFilm ]

Враг Нароода

0 | 0

26.86 ГБ


Начать новую тему Ответить на тему  [ 1 сообщение ] 




Для Мосгорсуда, Роскомнадзора и рекламодателей:: mosgorsud-torrent[собачка]yandex.ru