Торрент файл
скачать торрент магнет ссылка Добавлен: 19 дек 2011, 22:56
Размер: 1.54 ГБ
Сидеров: 0
Личеров: 3
Автор

СообщениеДобавлено: 19 дек 2011, 22:56 

Не в сети
Супермодератор
Аватара пользователя
Дата регистрации:
11 апр 2010, 18:10
Спасибо: 5802 / 7
Сообщения: 56779
Воздействие, 4 Сезон 4 Серия / Leverage


Дело о Ван Гоге / The Van Gogh Job

Перевод: Профессиональный (Многоголосый, закадровый) Субтитры: отсутствуют
Формат: WEB-DL, MKV, H.264\AVC, AC3
Страна: США
Режиссер: Дин Девлин, Марк Роскин, Джонатан Фрейкс
Жанр: Триллер, драма, криминал, детектив
Всего серий: 18
Продолжительность: 00:42:25
Год выпуска: 2011

В ролях: Тимоти Хаттон, Джина Беллман, Кристиан Кэйн, Бэт Рисграф, Элдис Ходж, Джери Райан, Марк Шеппард, Элизабетта Каналис, Роберт Бланш, Джералд Дауни

Описание: Нейт Форд, бывший следователь страховой компании, возглавляет команду, в которую входят: компьютерный мошенник Хардисон, воровка и вообще безбашенная особа Паркер, актриса и мошенница Софи и специалист широкого профиля Эллиот. Эта команда помогает людям, пострадавшим от рук сильных мира сего, а попросту — воров..

Рейтинг:


Видео: 1280x720 (16:9), MPEG4/ISO/AVC, Main@L3.1 23,976 fps, 4310 Kbps, 0.195 bit/pixel
Аудио RUS: 48.0 kHz, AC3 Dolby Digital, 2/0 (L,R) ch, ~384 kbps
Аудио ENG: 48.0 kHz, AC3 Dolby Digital, 2/0 (L,R) ch, ~384 kbps

Релиз:
[/field]

Над релизом работали:
Перевод: Mauz
Озвучка: Студия «Кравец»

Общее
Уникальный идентификатор: 184743060363969870367457451882664353152 (0x8AFC381D4FF590B3B04082503526DD80)
Полное имя: C:\Documents and Settings\Admin\Рабочий стол\720р\Leverage_S04E04_[tfile.ru].mkv
Формат: Matroska
Размер файла: 1,54 Гбайт
Продолжительность: 42 м.
Общий поток: 5181 Кбит/сек
Дата кодирования: UTC 2011-07-21 14:56:20
Программа кодирования: mkvmerge v4.3.0 ('Escape from the Island') сборка от Sep5 2010 10:30:51
Библиотека кодирования: libebml v1.0.0 + libmatroska v1.0.0

Видео
Идентификатор: 1
Формат: AVC
Формат/Информация: Advanced Video Codec
Профиль формата: Main@L3.1
Параметр CABAC формата: Нет
Параметр ReFrames формата: 3 кадра
Идентификатор кодека: V_MPEG4/ISO/AVC
Продолжительность: 42 м.
Битрейт: 4310 Кбит/сек
Ширина: 1280 пикс.
Высота: 720 пикс.
Соотношение сторон: 16:9
Частота кадров: 23,976 кадр/сек
Стандарт вещания: NTSC
Цветовое пространство: YUV
Подвыборка цветности: 4:2:0
Битовая глубина: 8 бит
Тип развёртки: Прогрессивная
Бит/(Пиксели*Кадры): 0.195
Размер потока: 1,28 Гбайт (83%)
Основные цвета: BT.601-6 525, BT.1358 525, BT.1700 NTSC, SMPTE 170M
Характеристики трансфера: BT.709-5, BT.1361
Коэффициенты матрицы: BT.601-6 525, BT.1358 525, BT.1700 NTSC, SMPTE 170M

Аудио #1
Идентификатор: 2
Формат: AC-3
Формат/Информация: Audio Coding 3
Расширение режима: CM (complete main)
Идентификатор кодека: A_AC3
Продолжительность: 42 м.
Вид битрейта: Постоянный
Битрейт: 384 Кбит/сек
Каналы: 2 канала
Расположение каналов: Front: L R
Частота: 48,0 КГц
Битовая глубина: 16 бит
Метод сжатия: С потерями
Размер потока: 117 Мбайт (7%)

Аудио #2
Идентификатор: 3
Формат: AC-3
Формат/Информация: Audio Coding 3
Расширение режима: CM (complete main)
Идентификатор кодека: A_AC3
Продолжительность: 42 м.
Вид битрейта: Постоянный
Битрейт: 384 Кбит/сек
Каналы: 2 канала
Расположение каналов: Front: L R
Частота: 48,0 КГц
Битовая глубина: 16 бит
Метод сжатия: С потерями
Размер потока: 117 Мбайт (7%)

1 сезон
1-7 серии - http://tfile.ru/forum/viewtopic.php?t=194028
8 серия - http://tfile.ru/forum/viewtopic.php?t=202874
9 серия - http://tfile.ru/forum/viewtopic.php?t=204647
10 серия - http://tfile.ru/forum/viewtopic.php?t=207608
11 серия - http://tfile.ru/forum/viewtopic.php?t=207610
12 серия - http://tfile.ru/forum/viewtopic.php?t=211108
13 серия - http://tfile.ru/forum/viewtopic.php?t=211110

2 сезон
1 серия http://tfile.ru/forum/viewtopic.php?t=223398
2 серия http://tfile.ru/forum/viewtopic.php?t=224513
3 серия http://tfile.ru/forum/viewtopic.php?t=225683
4 серия http://tfile.ru/forum/viewtopic.php?t=228507
5 серия http://tfile.ru/forum/viewtopic.php?t=228512
6 серия http://tfile.ru/forum/viewtopic.php?t=230146
7 серия http://tfile.ru/forum/viewtopic.php?t=234673
8 серия http://tfile.ru/forum/viewtopic.php?p=2976252
9 серия http://tfile.ru/forum/viewtopic.php?p=3106491
10 серия http://tfile.ru/forum/viewtopic.php?p=3495749
11 серия http://tfile.ru/forum/viewtopic.php?p=3541706
12 серия http://tfile.ru/forum/viewtopic.php?p=3585699
13 серия http://tfile.ru/forum/viewtopic.php?p=3711339
14 серия http://tfile.ru/forum/viewtopic.php?p=3727040
15 серия http://tfile.ru/forum/viewtopic.php?t=289330

3 сезон
1 серия http://tfile.ru/forum/viewtopic.php?p=4310646
2 серия http://tfile.ru/forum/viewtopic.php?p=4340951
3 серия http://tfile.ru/forum/viewtopic.php?p=4343567
4 серия http://tfile.ru/forum/viewtopic.php?p=4380479
5 серия http://tfile.ru/forum/viewtopic.php?p=4395394
6 серия http://tfile.ru/forum/viewtopic.php?p=4443368
7 серия http://tfile.ru/forum/viewtopic.php?p=4452553
8 серия http://tfile.ru/forum/viewtopic.php?p=4485560
9 серия http://tfile.ru/forum/viewtopic.php?p=4603162
10 серия http://tfile.ru/forum/viewtopic.php?p=4610448
11 серия http://tfile.ru/forum/viewtopic.php?p=4614067
12 серия http://tfile.ru/forum/viewtopic.php?p=4629715
13 серия http://tfile.ru/forum/viewtopic.php?p=4648277
14 серия http://tfile.ru/forum/viewtopic.php?p=5014992
15 серия http://tfile.ru/forum/viewtopic.php?p=5045652
16 серия http://tfile.ru/forum/viewtopic.php?t=393605

4 сезон
1-4 серии http://tfile.ru/forum/viewtopic.php?t=459584*

4 сезон 720р
1 серия http://tfile.ru/forum/viewtopic.php?t=459612
2 серия http://tfile.ru/forum/viewtopic.php?t=461391
3 серия http://tfile.ru/forum/viewtopic.php?t=463216
*-Обновляемая раздача









Поделиться:




реклама партнёра


Вернуться к началу
 Профиль Отправить личное сообщение  
 
   Похожие торренты   Автор   Торрент   Размер 
В этой теме нет новых непрочитанных сообщений. Чужой среди своих / Родина / Homeland (Сезон 2-4, Серии 1-28 из 36) [2012-2014, Триллер, драма, криминал, детектив , WEBDLRip-AVC 720р] [MVO] (LostFilm)

Враг Нароода

В этой теме нет новых непрочитанных сообщений. Готэм / Gotham / 3 сезон 1-11 серия из 22 [триллер, драма, криминал, 2016] WEB-DLRip, Mvo [LostFilm]

salma3

99 | 375

5.38 ГБ

В этой теме нет новых непрочитанных сообщений. Готэм / Gotham / 3 сезон 1-11 серия из 22 [Триллер, драма, криминал, 2016] WEB-DLRip 1080p, Mvo [LostFilm]

salma3

58 | 235

20.18 ГБ

В этой теме нет новых непрочитанных сообщений. Красавица и Чудовище / Beauty and the Beast / 4 сезон 1-13 серия из 13 [триллер, драма, криминал, детектив, 2016] WEB-DLRip, Mvo [LostFilm]

salma3

191 | 196

6.98 ГБ

В этой теме нет новых непрочитанных сообщений. Готэм / Gotham / 2 сезон 1-22 серия из 22 (Дэнни Кэннон, Т.Дж. Скотт, Пол А. Эдвардс) [2015, триллер, драма, криминал, WEB-DLRip | LostFilm]

Dracon

67 | 258

8.6 ГБ

В этой теме нет новых непрочитанных сообщений. Готэм / Gotham / 2 сезон 1-22 серия из 22 (Дэнни Кэннон, Т.Дж. Скотт, Пол А. Эдвардс) [2015, триллер, драма, криминал, WEB-DLRip | LostFilm]

Dracon

145 | 97

11.81 ГБ

В этой теме нет новых непрочитанных сообщений. Во все тяжкие / Breaking Bad( Адам Бернштейн, Брайан Крэнстон) (Сезон 1-4, Серия 1-62 из 62) [2008-2013, Драма / Триллер / Детектив, Криминал, ВDRip-AVC 1080p ] [MVO] [LostFilm]

Nikolai.Baranov

12 | 22

174.56 ГБ


Начать новую тему Ответить на тему  [ 1 сообщение ] 




Для Мосгорсуда, Роскомнадзора и рекламодателей:: mosgorsud-torrent[собачка]yandex.ru